Ссылка на приватное зеркало нашего сайта всего за 1$. Внимание количество ограничено!!!

2 сезон

iTunes

1 сезон

1

iTunes

iTunes

iTunes

1 сезон

RePack

30

ИГРА 18+

pack

ВАЖНО

!!Акция!!

Alien_RageХит недели

RePack

MK11
pack

Забери бонус

RePack

jed

!!Акция!!

Alien_Rage

RePack

fifa19

RePack

Assassins Creed: Odyssey

RePack

NEED FOR SPEED™ PAYBACK

4 сезон

9 сезон

Бесстыжие 9 сезон

Все сериалы

все сериалы на PB.wtf

RePack

FAR CRY 5
  

Эпидемия / Outbreak (Вольфганг Петерсен) [1995, триллер, драма, фантастика, боевик, BDRip 1080p от еnvy / NNNB] DUB pb.wtf

Эпидемия через торрент pb.wtf

Размер: 7.75 GB | Добавлен: 5 лет 2 мес. назад | Торрент скачан:79 раз
Скачать  

22-08-2015 07:08 Эпидемия Скачать торрент  

Информация о фильме

Русское название: Эпидемия
Оригинальное название: Outbreak
Год выхода: 1995
Жанр: триллер, драма, фантастика, боевик
Режиссер: Вольфганг Петерсен
Выпущено: США
Продолжительность: 02:08:15
Перевод: Дублированный
В ролях: Дастин Хоффман, Рене Руссо, Морган Фриман, Кевин Спейси, Кьюба Гудинг мл., Дональд Сазерленд, Патрик Демпси, Малик Боуэнс, Сьюзэн Ли Хоффман


Сюжет фильма

Из Африки в Америку с зараженной обезьянкой попадает смертельный вирус. Специалисты-эпидемиологи из НИИ инфекционных заболеваний армии США, в числе которых полковник Сэм Дэниелс, срочно вылетают в эпицентр заражения. Двое из высших военных руководителей — начальники Сэма — скрывают от него, что им известен этот вирус, который они выводили несколько лет. И, более того, даже разработали сыворотку, способную обезвредить вирус. Для предотвращения страшной эпидемии нужна сыворотка, которую можно получить лишь из крови первоначального носителя — той самой обезьянки. Дело осложняется тем, что место ее нахождения неизвестно, а счет идет на часы…


Файл

Формат: AVC (библиотека кодирования x.264)
Контейнер (Расширение): MKV
Видео кодек: AVC
Аудио кодек:AC3
Качество: BDRip 1080p (исходник Blu-ray Disc Remux)
Видео: 1920x1080, 7252 Кбит/сек, 23,976 кадр/сек, AVC, x264, High@L4.1, 16:9, 0.146 Бит/[Пиксели*Кадры]
Аудио 1: AC-3, 384 Кбит/сек, 6 канала(ов), 48,0 КГц - Дублированный, Варус-Видео / Русский
Аудио 2: AC-3, 384 Кбит/сек, 6 канала(ов), 48,0 КГц - Дублированный, Мост-Видео / Русский
Аудио 3: AC-3, 640 Кбит/сек, 6 канала(ов), 48,0 КГц - Оригинал / Английский
Субтитры: Русские | Полные, Английские | Полные | SDH
Форсированные субтитры: Нет
Чаптеры (Главы): Есть









Автор Рипа: Сообщество:


Код:

Format                      : Matroska
Format version              : Version 2
File size                   : 7.75 GiB
Duration                    : 2h 8mn
Overall bit rate            : 8 647 Kbps
Movie name                  : Эпидемия.(1995).BDRip.1080p.[envy]
Encoded date                : UTC 2015-08-18 21:00:35
Writing application         : mkvmerge v5.8.0 ('No Sleep / Pillow') built on Sep  2 2012 15:37:04
Writing library             : libebml v1.2.3 + libmatroska v1.3.0

Video
ID                          : 1
Format                      : AVC
Format/Info                 : Advanced Video Codec
Format profile              : High@L4.1
Format settings, CABAC      : Yes
Format settings, ReFrames   : 4 frames
Codec ID                    : V_MPEG4/ISO/AVC
Duration                    : 2h 8mn
Bit rate                    : 7 252 Kbps
Width                       : 1 920 pixels
Height                      : 1 080 pixels
Display aspect ratio        : 16:9
Frame rate mode             : Constant
Frame rate                  : 23.976 fps
Color space                 : YUV
Chroma subsampling          : 4:2:0
Bit depth                   : 8 bits
Scan type                   : Progressive
Bits/(Pixel*Frame)          : 0.146
Stream size                 : 6.33 GiB (82%)
Title                       : Эпидемия.(1995).BDRip.1080p.[envy]
Writing library             : x264 core 148 r2579 73ae2d1
Encoding settings           : cabac=1 / ref=4 / deblock=1:-3:-3 / analyse=0x3:0x133 / me=umh / subme=11 / psy=1 / psy_rd=1.00:0.00 / mixed_ref=1 / me_range=48 / chroma_me=1 / trellis=2 / 8x8dct=1 / cqm=0 / deadzone=21,11 / fast_pskip=0 / chroma_qp_offset=-2 / threads=12 / lookahead_threads=2 / sliced_threads=0 / nr=0 / decimate=1 / interlaced=0 / bluray_compat=0 / constrained_intra=0 / bframes=8 / b_pyramid=2 / b_adapt=2 / b_bias=0 / direct=3 / weightb=1 / open_gop=0 / weightp=2 / keyint=240 / keyint_min=23 / scenecut=40 / intra_refresh=0 / rc=2pass / mbtree=0 / bitrate=7252 / ratetol=2.0 / qcomp=0.60 / qpmin=0 / qpmax=69 / qpstep=4 / cplxblur=20.0 / qblur=0.5 / ip_ratio=1.40 / pb_ratio=1.30 / aq=2:0.70
Language                    : English
Default                     : Yes
Forced                      : No

Audio #1
ID                          : 2
Format                      : AC-3
Format/Info                 : Audio Coding 3
Mode extension              : CM (complete main)
Format settings, Endianness : Big
Codec ID                    : A_AC3
Duration                    : 2h 8mn
Bit rate mode               : Constant
Bit rate                    : 384 Kbps
Channel(s)                  : 6 channels
Channel positions           : Front: L C R, Side: L R, LFE
Sampling rate               : 48.0 KHz
Compression mode            : Lossy
Stream size                 : 352 MiB (4%)
Title                       : Dub #1
Language                    : Russian
Default                     : Yes
Forced                      : No

Audio #2
ID                          : 3
Format                      : AC-3
Format/Info                 : Audio Coding 3
Mode extension              : CM (complete main)
Format settings, Endianness : Big
Codec ID                    : A_AC3
Duration                    : 2h 8mn
Bit rate mode               : Constant
Bit rate                    : 384 Kbps
Channel(s)                  : 6 channels
Channel positions           : Front: L C R, Side: L R, LFE
Sampling rate               : 48.0 KHz
Compression mode            : Lossy
Stream size                 : 352 MiB (4%)
Title                       : Dub #2
Language                    : Russian
Default                     : No
Forced                      : No

Audio #3
ID                          : 4
Format                      : AC-3
Format/Info                 : Audio Coding 3
Mode extension              : CM (complete main)
Format settings, Endianness : Big
Codec ID                    : A_AC3
Duration                    : 2h 8mn
Bit rate mode               : Constant
Bit rate                    : 640 Kbps
Channel(s)                  : 6 channels
Channel positions           : Front: L C R, Side: L R, LFE
Sampling rate               : 48.0 KHz
Compression mode            : Lossy
Stream size                 : 587 MiB (7%)
Title                       : Eng
Language                    : English
Default                     : No
Forced                      : No

Text #1
ID                          : 5
Format                      : UTF-8
Codec ID                    : S_TEXT/UTF8
Codec ID/Info               : UTF-8 Plain Text
Title                       : Rus full
Language                    : Russian
Default                     : No
Forced                      : No

Text #2
ID                          : 6
Format                      : UTF-8
Codec ID                    : S_TEXT/UTF8
Codec ID/Info               : UTF-8 Plain Text
Title                       : Eng full SDH
Language                    : English
Default                     : No
Forced                      : No

Menu
00:00:00.000                : :Chapter 01
00:03:55.652                : :Chapter 02
00:07:05.883                : :Chapter 03
00:10:18.159                : :Chapter 04
00:13:16.504                : :Chapter 05
00:17:54.114                : :Chapter 06
00:20:33.440                : :Chapter 07
00:23:08.470                : :Chapter 08
00:27:46.915                : :Chapter 09
00:30:26.950                : :Chapter 10
00:34:40.495                : :Chapter 11
00:37:46.597                : :Chapter 12
00:41:08.257                : :Chapter 13
00:43:51.920                : :Chapter 14
00:47:23.465                : :Chapter 15
00:49:34.930                : :Chapter 16
00:51:39.429                : :Chapter 17
00:54:11.498                : :Chapter 18
00:56:16.706                : :Chapter 19
00:59:16.094                : :Chapter 20
01:03:23.007                : :Chapter 21
01:07:30.921                : :Chapter 22
01:08:42.827                : :Chapter 23
01:10:52.289                : :Chapter 24
01:13:43.544                : :Chapter 25
01:15:36.448                : :Chapter 26
01:18:21.822                : :Chapter 27
01:22:13.428                : :Chapter 28
01:26:22.135                : :Chapter 29
01:29:15.933                : :Chapter 30
01:32:30.628                : :Chapter 31
01:33:41.032                : :Chapter 32
01:36:43.380                : :Chapter 33
01:38:43.876                : :Chapter 34
01:39:41.517                : :Chapter 35
01:41:27.664                : :Chapter 36
01:44:10.577                : :Chapter 37
01:45:41.126                : :Chapter 38
01:48:34.257                : :Chapter 39
01:51:15.293                : :Chapter 40
01:56:05.041                : :Chapter 41
01:58:07.330                : :Chapter 42
01:59:07.014                : :Chapter 43
02:00:54.622                : :Chapter 44
02:02:22.084                : :Chapter 45


Самые распространенные форматы изображения:
pb.wtf



Скачать Эпидемия через торрент http://6.firepic.org/6/images/2015-08/19/z72cuoq2u17s.png Скачать фильм Эпидемия через торрент бесплантно в хорошем качестве В ролях: Дастин Хоффман, Рене Руссо, Морган Фриман, Кевин Спейси, Кьюба Гудинг мл., Дональд Сазерленд, Патрик Демпси, Малик Боуэнс, Сьюзэн ... 8.5 10 6
Info! Золотая раздача, скачанное не засчитывается.
Торрент: Зарегистрирован [2015-08-22 07:08] · скачан: 79 раз
Статус: √ проверено
Размер: 7.75 GB
Как cкачать? Как скачать Эпидемия через торрент | qTorrent

% Раздел Тема Автор DL S | L
Фильмы до 2000 г. [ 3.58 GB ] Эпидемия / Outbreak [1995 BDRip-AVC] DUB MVO DVO - ExKinoRay Enigma2010 Скачать
24 | 0
Фильмы [HD 720p, 1080p] (Хороший звук DUB, MVO) [ 16.6 GB ] Эпидемия / Outbreak [1995 BDRip 1080p by msltel] 2 x DUB 3 x AVO msltel Скачать
1 | 0
Фильмы [HD 720p, 1080p] (Хороший звук DUB, MVO) [ 7.26 GB ] Эпидемия / Outbreak [1995 BDRip 720p by msltel] 2 x DUB 3 x AVO msltel Скачать
1 | 0

28-11-2019 20:33  

Отключить всю рекламу на сайте

    Дорогой пользователь! Огромная просьба, поблагодарите релизера, оцените раздачу и оставьте свои комментарий, если Вы скачали Эпидемия через торрент бесплатно! Внесите свою лепту в развитие PiratBit!
    Комментировать посты могут только пользователи прошедшие не сложную регистрацию
    Показать сообщения:    

    Эпидемия через торрент
    Скачать бесплатно Эпидемия
    Эпидемия скачать торрент
    Эпидемия смотреть онлайн
    Cкачать фильм Эпидемия бесплатно
    Эпидемия скачать торрент в хорошем качестве
    Эпидемия смотреть онлайн бесплатно в хорошем качестве


    Вы не можете начинать темы
    Вы не можете отвечать на сообщения
    Вы не можете редактировать свои сообщения
    Вы не можете удалять свои сообщения
    Вы не можете голосовать в опросах
    Вы не можете прикреплять файлы к сообщениям
    Вы можете скачивать файлы