новый адрес
Мега распродажа FORZA HORIZON 4 ULTIMATE+ВСЕ DLC+ОНЛАЙН всего за 499р. 349 руб. (супер цена). Внимание количество ограничено!!!

iTunes

1+1

iTunes

мы

iTunes

1

iTunes

Чернобыль

iTunes

Ральф против интернета

Лицензия

ПШазам

Лицензия

Оно 2

Лицензия

30
pack

ВАЖНО

!!Акция!!

Alien_RageХит недели

RePack

Resident Evil 21

ИГРА 18+

pack

RePack

Metro:Exodus

!!Акция!!

Alien_Rage

RePack

fifa19

RePack

Assassins Creed: Odyssey

RePack

NEED FOR SPEED™ PAYBACK

3 сезон

9 сезон

Бесстыжие 9 сезон

Все сериалы

все сериалы на PB.wtf

RePack

FAR CRY 5
Ребята, катастрофически не хватает 1900р. для оплаты серверов за Октябрь (всвязи с блокировками трафик упал в 3 раза), 1-2р., выручайте.
  

Константин Заслонов (Александр Файнциммер, Владимир Корш-Саблин) [1949, СССР, боевик, драма, военный, DVDRip от AVP Studio] pb.wtf

Константин Заслонов через торрент pb.wtf

Размер: 745 MB | Добавлен: 4 года 2 мес. назад | Торрент скачан:28 раз
Скачать  

23-08-2015 07:27 Константин Заслонов Скачать торрент  

Константин Заслонов
Страна: СССР
Производство: Беларусьфильм

Жанр: боевик, драма, военный
Год выпуска: 1949
Продолжительность: 01:10:52

Перевод: Не требуется
Cубтитры: нет
Оригинальная аудиодорожка: русский

Режиссер: Александр Файнциммер, Владимир Корш-Саблин

В ролях:
Владимир Дружников, Юрий Толубеев, Александр Хвыля, Глеб Глебов, Владимир Дорофеев, Владимир Дедюшко, Владимир Балашов, Инна Кондратьева, Лидия Штыкан, Владимир Марьев, Яков Малютин, Геннадий Мичурин, Владимир Соловьёв, Лев Фенин, Здислав Стомма, Татьяна Барышева, Эльвира (Эльва) Луценко...
Полный список актёров

Описание:
Историко-биографический фильм по пьесе А. Мовзона.
Фильм рассказывает о борьбе белорусских партизан в годы Великой Отечественной войны под руководством бывшего инженера, легендарного организатора и руководителя партизанского движения К.С.Заслонова (1910-1942).
Осень 1941 года. После эвакуации начальник Оршанского депо Заслонов (Владимир Дружников) обращается в ЦК КП Белоруссии с предложением о создании подпольной группы и получает от секретаря ЦК задание вернуться в Оршу. Заслонов без труда устраивается на работу в депо, так как немцам очень нужны опытные специалисты. Подпольщики получают от инженера задание делать угольные мины и взрывать паровозы. А вскоре Константину Заслонову и его помощникам удается полностью парализовать деятельность узла, заморозив его водную систему. Немцы арестовывают Заслонова, но ему удается бежать во время атаки советской авиации. Он принимает командование всеми партизанскими отрядами Оршанской зоны и ведет своих бойцов, среди которых его соратники по подпольной борьбе, в бой...

Источник: DVD5 R5
Качество видео: DVDRip
Формат видео: AVI
Видео кодек: XviD
Аудио кодек: MP3
Видео: 688x512 (4:3), 25 fps, XviD ~ 1333 kbps avg, 0.151 bit/pixel
Аудио: 48 kHz, MP3 2.0, 128 kbps

Раздача от:
Общее
Полное имя : Konstantin.Zaslonov.1949.DVDRip-745_[New-team]_by_AVP_Studio.avi
Формат : AVI
Формат/Информация : Audio Video Interleave
Размер файла : 745 Мбайт
Продолжительность : 1 ч. 10 м.
Общий поток : 1471 Кбит/сек
Программа кодирования : VirtualDubMod 1.5.10.3 | www.virtualdub-fr.org || (build 2550/release)
Библиотека кодирования : VirtualDubMod build 2550/release

Видео
Идентификатор : 0
Формат : MPEG-4 Visual
Профиль формата : Advanced Simple@L5
Параметр BVOP формата : 1
Параметр QPel формата : Нет
Параметр GMC формата : Без точки перехода
Параметр матрицы формата : Выборочная
Идентификатор кодека : XVID
Идентификатор кодека/Подсказка : XviD
Продолжительность : 1 ч. 10 м.
Битрейт : 1333 Кбит/сек
Ширина : 688 пикселей
Высота : 512 пикселей
Соотношение сторон : 4:3
Частота кадров : 25,000 кадров/сек
Цветовое пространство : YUV
Субдискретизация насыщенности : 4:2:0
Битовая глубина : 8 бит
Тип развёртки : Прогрессивная
Метод сжатия : С потерями
Бит/(Пиксели*Кадры) : 0.151
Размер потока : 676 Мбайт (91%)
Библиотека кодирования : XviD 73

Аудио
Идентификатор : 1
Формат : MPEG Audio
Версия формата : Version 1
Профиль формата : Layer 3
Идентификатор кодека : 55
Идентификатор кодека/Подсказка : MP3
Продолжительность : 1 ч. 10 м.
Вид битрейта : Постоянный
Битрейт : 128 Кбит/сек
Каналы : 2 канала
Частота : 48,0 КГц
Метод сжатия : С потерями
Размер потока : 64,9 Мбайт (9%)
Выравнивание : Соединение по промежуткам
Продолжительность промежутка : 40 мс. (1,00 видеокадр)
Время предзагрузки промежутка : 504 мс.
Библиотека кодирования : LAME3.99r
Настройки программы : -m s -V 4 -q 2 -lowpass 17 -b 128
pb.wtf



Скачать Константин Заслонов через торрент http://s017.radikal.ru/i432/1508/0d/04aad2f6c6f4.png Скачать фильм Константин Заслонов через торрент бесплантно в хорошем качестве Описание:Историко-биографический фильм по пьесе А. Мовзона.Фильм рассказывает о борьбе белорусских партизан в годы Великой Отечественной ... 10 10 1
Торрент: Зарегистрирован [2015-08-23 07:27] · скачан: 28 раз
Статус: √ проверено
Размер: 745 MB
Как cкачать? Как скачать Константин Заслонов через торрент | qTorrent

% Раздел Тема Автор DL S | L
Кино СССР [ 1.09 GB ] Константин Заслонов [1949 СССР военный DVDRip-AVC от AVP Studio] AVP Studio Скачать
1 | 0
Кино СССР [ 1.09 GB ] Константин Заслонов [1949 СССР военный DVDRip от AVP Studio] AVP Studio Скачать
1 | 0


>> Регистрируемся здесь <<






Отзывы и комментарии о схеме читаем и пишем здесь: ---> Отзывы и комментарии о схеме

Новые благодарочки в телеграм довольных пользователей:
скриншот   скриншот   скриншот   скриншот   скриншот
    Дорогой пользователь! Огромная просьба, поблагодарите релизера, оцените раздачу и оставьте свои комментарий, если Вы скачали Константин Заслонов через торрент бесплатно! Внесите свою лепту в развитие PiratBit!
    Комментировать посты могут только пользователи прошедшие не сложную регистрацию
    Показать сообщения:    

    Константин Заслонов через торрент
    Скачать бесплатно Константин Заслонов
    Константин Заслонов скачать торрент
    Константин Заслонов смотреть онлайн
    Cкачать фильм Константин Заслонов бесплатно
    Константин Заслонов скачать торрент в хорошем качестве
    Константин Заслонов смотреть онлайн бесплатно в хорошем качестве


    Вы не можете начинать темы
    Вы не можете отвечать на сообщения
    Вы не можете редактировать свои сообщения
    Вы не можете удалять свои сообщения
    Вы не можете голосовать в опросах
    Вы не можете прикреплять файлы к сообщениям
    Вы можете скачивать файлы