Присоединяйтесь к нам в Telegram!, здесь всегда актуальный адрес сайта, оперативная поддержка и многое другое!!

>

5.9

iTunes

7.4

iTunes

9.4

1 сезон

1

7.4

2 сезон

7.2

iTunes

7.3

1 сезон

13

6.1

iTunes

8.3

GOG

30

ULTIMATE

pack

9.9

Лицензия

ВАЖНО

ИГРА 18+

pack

7.3

RePack

MK11

7.7

RePack

jed

7.8

RePack

fifa19

8.5

RePack

RDR2

RePack

NEED FOR SPEED™ PAYBACK

5 сезон

9 сезон

Бесстыжие 9 сезон

Все сериалы

все сериалы на PB.wtf

RePack

FAR CRY 5

Anonymous, доброе утро, мы катастрофически не успеваем собрать деньги на оплату серверов, помогите нам пожалуйста 5,10,15р., для нас важна любая помощь . В качестве благодарности мы отключим Вам всю рекламу на сайте (укажите свой ник в строку Ваше имя)!

×
  
Magnet ссылка

Би-2 - Забрали в армию [2014 г., Рок, WEB-DLRip 720p] pb.wtf

Би-2 - Забрали в армию через торрент pb.wtf

Размер: 350 MB | Добавлен: 6 лет 3 мес. назад | Торрент скачан:21 раз
Смотреть онлайн Би-2 - Забрали в армию | Скачать    Ребята, помогите собрать деньги на оплату серверов!!!

23-08-2015 14:43 Би-2 - Забрали в армию Скачать торрент  

Би-2 - Забрали в армию
Год выпуска: 2014
Страна: Россия
Жанр: Рок
Продолжительность: 00:04:02

Качество: WEB-DLRip 720p
Формат: MKV
Видео кодек: AVC
Аудио кодек: AC3
Видео: MPEG4 AVC, 1280x720, 60,000 fps, 11,8Mb/s
Аудио#1: AC-3 48 kHz, 2ch, 448kbps

Общее
Уникальный идентификатор : 210970760688356053016656458459294249746 (0x9EB77D94074C920981A3F7448D68B312)
Полное имя : E:\Upload\Би-2 - Забрали в армию\Би-2 - Забрали в армию (2014) WEB-DLRip [720p].mkv
Формат : Matroska
Версия формата : Version 4 / Version 2
Размер файла : 350 Мбайт
Продолжительность : 4 м. 2 с.
Общий поток : 12,1 Мбит/сек
Дата кодирования : UTC 2015-07-05 14:40:14
Программа кодирования : mkvmerge v7.5.0 ('Glass Culture') 64bit built on Jan 4 2015 16:48:44
Библиотека кодирования : libebml v1.3.1 + libmatroska v1.4.2
DURATION : 00:04:02.336000000
NUMBER_OF_FRAMES : 7573
NUMBER_OF_BYTES : 13570816
_STATISTICS_WRITING_APP : mkvmerge v7.5.0 ('Glass Culture') 64bit built on Jan 4 2015 16:48:44
_STATISTICS_WRITING_DATE_UTC : 2015-07-05 14:40:14
_STATISTICS_TAGS : BPS DURATION NUMBER_OF_FRAMES NUMBER_OF_BYTES

Видео
Идентификатор : 1
Формат : AVC
Формат/Информация : Advanced Video Codec
Профиль формата : High@L4.1
Параметр CABAC формата : Да
Параметр ReFrames формата : 4 кадра
Идентификатор кодека : V_MPEG4/ISO/AVC
Продолжительность : 4 м. 2 с.
Битрейт : 11,8 Мбит/сек
Ширина : 1280 пикселей
Высота : 720 пикселей
Соотношение сторон : 16:9
Режим частоты кадров : Постоянный
Частота кадров : 60,000 кадров/сек
Цветовое пространство : YUV
Субдискретизация насыщенности : 4:2:0
Битовая глубина : 8 бит
Тип развёртки : Прогрессивная
Бит/(Пиксели*Кадры) : 0.213
Размер потока : 330 Мбайт (94%)
Библиотека кодирования : x264 core 146 r2538 121396c
Настройки программы : cabac=1 / ref=3 / deblock=1:-1:-1 / analyse=0x3:0x113 / me=umh / subme=11 / psy=1 / psy_rd=1.00:0.00 / mixed_ref=1 / me_range=32 / chroma_me=1 / trellis=2 / 8x8dct=1 / cqm=0 / deadzone=21,11 / fast_pskip=1 / chroma_qp_offset=-4 / threads=3 / lookahead_threads=1 / sliced_threads=0 / nr=0 / decimate=1 / interlaced=0 / bluray_compat=0 / constrained_intra=0 / bframes=4 / b_pyramid=2 / b_adapt=2 / b_bias=0 / direct=1 / weightb=1 / open_gop=0 / weightp=2 / keyint=600 / keyint_min=60 / scenecut=40 / intra_refresh=0 / rc_lookahead=40 / rc=2pass / mbtree=1 / bitrate=11799 / ratetol=1.0 / qcomp=0.60 / qpmin=10 / qpmax=69 / qpstep=4 / cplxblur=20.0 / qblur=0.5 / vbv_maxrate=50000 / vbv_bufsize=62500 / nal_hrd=none / filler=0 / ip_ratio=1.40 / aq=1:1.00
Язык : Russian
Default : Да
Forced : Нет

Аудио
Идентификатор : 2
Формат : AC-3
Формат/Информация : Audio Coding 3
Расширение режима : CM (complete main)
Параметр Endianness формата : Big
Идентификатор кодека : A_AC3
Продолжительность : 4 м. 2 с.
Вид битрейта : Постоянный
Битрейт : 448 Кбит/сек
Каналы : 2 канала
Расположение каналов : Front: L R
Частота : 48,0 КГц
Битовая глубина : 16 бит
Метод сжатия : С потерями
Размер потока : 12,9 Мбайт (4%)
Язык : Russian
Default : Нет
Forced : Нет


Би-2 - Забрали в армию скачать торрент


pb.wtf



Скачать Би-2 - Забрали в армию через торрент http://upyourpic.org/images/201506/cp1ivbbig9.jpg Скачать, смотреть онлайн Би-2 - Забрали в армию [2014 г., Рок, WEB-DLRip 720p] бесплантно в хорошем качестве Год выпуска: 2014Страна: РоссияЖанр: РокПродолжительность: ... 10 10 2
Торрент: Зарегистрирован [2015-08-23 14:43] · скачан: 21 раз
Статус: √ проверено
Размер: 350 MB
Как cкачать? Как скачать Би-2 - Забрали в армию через торрент | UTorrent

28-11-2019 20:33  

Отключить всю рекламу на сайте

    Дорогой пользователь! Огромная просьба, поблагодарите релизера, оцените раздачу и оставьте свои комментарий, если Вы скачали Би-2 - Забрали в армию через торрент бесплатно!
    Комментировать посты могут только пользователи прошедшие не сложную регистрацию
    Показать сообщения:    

    Би-2 - Забрали в армию через торрент
    Скачать бесплатно Би-2 - Забрали в армию
    Би-2 - Забрали в армию скачать торрент
    Би-2 - Забрали в армию смотреть онлайн
    Cкачать фильм Би-2 - Забрали в армию бесплатно
    Би-2 - Забрали в армию скачать торрент в хорошем качестве
    Би-2 - Забрали в армию смотреть онлайн бесплатно в хорошем качестве


    Вы не можете начинать темы
    Вы не можете отвечать на сообщения
    Вы не можете редактировать свои сообщения
    Вы не можете удалять свои сообщения
    Вы не можете голосовать в опросах
    Вы не можете прикреплять файлы к сообщениям
    Вы можете скачивать файлы