Присоединяйтесь к нам в Telegram!, здесь всегда актуальный адрес сайта, оперативная поддержка и многое другое!!

>

5.9

iTunes

7.4

iTunes

9.4

1 сезон

1

7.4

2 сезон

7.2

iTunes

7.3

1 сезон

13

6.1

iTunes

8.3

GOG

30

ULTIMATE

pack

9.9

Лицензия

ВАЖНО

ИГРА 18+

pack

7.3

RePack

MK11

7.7

RePack

jed

7.8

RePack

fifa19

8.5

RePack

RDR2

RePack

NEED FOR SPEED™ PAYBACK

5 сезон

9 сезон

Бесстыжие 9 сезон

Все сериалы

все сериалы на PB.wtf

RePack

FAR CRY 5

Anonymous, добрый вечер, мы катастрофически не успеваем собрать деньги на оплату серверов, помогите нам пожалуйста 5,10,15р., для нас важна любая помощь . В качестве благодарности мы отключим Вам всю рекламу на сайте (укажите свой ник в строку Ваше имя)!

×
  
Magnet ссылка

Ленинград - Мои х... [2014 г., Рок, WEB-DLRip 1080p] pb.wtf

Ленинград - Мои х... через торрент pb.wtf

Размер: 825 MB | Добавлен: 6 лет 3 мес. назад | Торрент скачан:74 раза
Смотреть онлайн Ленинград - Мои х... | Скачать    Ребята, помогите собрать деньги на оплату серверов!!!

23-08-2015 16:00 Ленинград - Мои х... Скачать торрент  

Ленинград - Мои х...
Год выпуска: 2014
Страна: Россия
Жанр: Рок
Продолжительность: 00:06:42

Качество: WEB-DLRip 1080p
Формат: MKV
Видео кодек: AVC
Аудио кодек: AAC
Видео: MPEG4 AVC, 1920x1008, 60 fps, 17,0Mb/s
Аудио#1: AAC 48,0 kHz, 2ch, 317kbps

Общее
Полное имя : C:\Users\Админ\Cloud@Mail.Ru\TEMP\Ленинград - Мои х...mp4
Формат : MPEG-4
Профиль формата : Base Media / Version 2
Идентификатор кодека : mp42
Размер файла : 966 Мбайт
Продолжительность : 6 м. 42 с.
Режим общего битрейта : Переменный
Общий поток : 20,2 Мбит/сек
Дата кодирования : UTC 2014-04-13 11:13:39
Дата пометки : UTC 2014-04-13 11:13:54
©TIM : 00:00:00:00
©TSC : 25
©TSZ : 1

Видео
Идентификатор : 1
Формат : AVC
Формат/Информация : Advanced Video Codec
Профиль формата : Main@L5.1
Параметр CABAC формата : Да
Параметр ReFrames формата : 3 кадра
Параметр GOP формата : M=4, N=33
Идентификатор кодека : avc1
Идентификатор кодека/Информация : Advanced Video Coding
Продолжительность : 6 м. 42 с.
Битрейт : 20,0 Мбит/сек
Ширина : 1920 пикселей
Высота : 1080 пикселей
Соотношение сторон : 16:9
Режим частоты кадров : Постоянный
Частота кадров : 25,000 кадров/сек
Стандарт вещания : PAL
Цветовое пространство : YUV
Субдискретизация насыщенности : 4:2:0
Битовая глубина : 8 бит
Тип развёртки : Прогрессивная
Бит/(Пиксели*Кадры) : 0.385
Размер потока : 957 Мбайт (99%)
Язык : English
Дата кодирования : UTC 2014-04-13 11:13:39
Дата пометки : UTC 2014-04-13 11:13:39

Аудио
Идентификатор : 2
Формат : AAC
Формат/Информация : Advanced Audio Codec
Профиль формата : LC
Идентификатор кодека : 40
Продолжительность : 6 м. 42 с.
Продолжительность оригинала : 6 м. 42 с.
Вид битрейта : Переменный
Битрейт : 192 Кбит/сек
Максимальный битрейт : 295 Кбит/сек
Каналы : 2 канала
Расположение каналов : Front: L R
Частота : 48,0 КГц
Метод сжатия : С потерями
Размер потока : 9,08 Мбайт (1%)
Размер потока оригинала : 9,08 Мбайт (1%)
Язык : English
Дата кодирования : UTC 2014-04-13 11:13:39
Дата пометки : UTC 2014-04-13 11:13:39
mdhd_Duration : 402005

pb.wtf



Скачать Ленинград - Мои х... через торрент http://upyourpic.org/images/201508/hk1jf6purr.jpg Скачать, смотреть онлайн Ленинград - Мои х... [2014 г., Рок, WEB-DLRip 1080p] бесплантно в хорошем качестве Год выпуска: 2014Страна: РоссияЖанр: РокПродолжительность: ... 7.8 10 4
Info! Золотая раздача, скачанное не засчитывается.
Торрент: Зарегистрирован [2015-08-23 16:00] · скачан: 74 раз
Статус: √ проверено
Размер: 825 MB
Как cкачать? Как скачать Ленинград - Мои х... через торрент | UTorrent

28-11-2019 20:33  

Отключить всю рекламу на сайте

    Дорогой пользователь! Огромная просьба, поблагодарите релизера, оцените раздачу и оставьте свои комментарий, если Вы скачали Ленинград - Мои х... через торрент бесплатно!
    Комментировать посты могут только пользователи прошедшие не сложную регистрацию
    Показать сообщения:    

    Ленинград - Мои х... через торрент
    Скачать бесплатно Ленинград - Мои х...
    Ленинград - Мои х... скачать торрент
    Ленинград - Мои х... смотреть онлайн
    Cкачать фильм Ленинград - Мои х... бесплатно
    Ленинград - Мои х... скачать торрент в хорошем качестве
    Ленинград - Мои х... смотреть онлайн бесплатно в хорошем качестве


    Вы не можете начинать темы
    Вы не можете отвечать на сообщения
    Вы не можете редактировать свои сообщения
    Вы не можете удалять свои сообщения
    Вы не можете голосовать в опросах
    Вы не можете прикреплять файлы к сообщениям
    Вы можете скачивать файлы