Присоединяйтесь к нам в Telegram!, здесь всегда актуальный адрес сайта, оперативная поддержка и многое другое!!

>

5.9

iTunes

7.4

iTunes

9.4

1 сезон

1

7.4

2 сезон

7.2

iTunes

7.3

1 сезон

13

6.1

iTunes

8.3

GOG

30

ULTIMATE

pack

9.9

Лицензия

ВАЖНО

ИГРА 18+

pack

7.3

RePack

MK11

7.7

RePack

jed

7.8

RePack

fifa19

8.5

RePack

RDR2

RePack

NEED FOR SPEED™ PAYBACK

5 сезон

9 сезон

Бесстыжие 9 сезон

Все сериалы

все сериалы на PB.wtf

RePack

FAR CRY 5

Anonymous, доброе утро, мы катастрофически не успеваем собрать деньги на оплату серверов, помогите нам пожалуйста 5,10,15р., для нас важна любая помощь . В качестве благодарности мы отключим Вам всю рекламу на сайте (укажите свой ник в строку Ваше имя)!

×
  
Magnet ссылка

Nicole Scherzinger - Your Love / Nicole Scherzinger - Your Love [2014 г., Поп, WEB-DLRip 1080p] pb.wtf

Nicole Scherzinger - Your Love через торрент pb.wtf

Размер: 534 MB | Добавлен: 6 лет 3 мес. назад | Торрент скачан:44 раза
Смотреть онлайн Nicole Scherzinger - Your Love | Скачать    Ребята, помогите собрать деньги на оплату серверов!!!

23-08-2015 16:25 Nicole Scherzinger - Your Love Скачать торрент  

Nicole Scherzinger - Your Love / Nicole Scherzinger - Your Love
Год выпуска: 2014
Жанр: Поп
Продолжительность: 00:04:04

Качество: WEB-DLRip 1080p
Формат: MKV
Видео кодек: AVC
Аудио кодек: AC3
Видео: MPEG4 AVC, 1920x704, 59,940 fps, 17,8Mb/s
Аудио#1: AC3 48,0 kHz, 2ch, 384kbps

Общее
Уникальный идентификатор : 228387458614936977806988251485270944597 (0xABD1D3158174D3AC88EF29A2A5CBAB55)
Полное имя : E:\Upload\Nicole Scherzinger - Your Love\Nicole Scherzinger - Your Love (2014) WEB-DLRip [1080p].mkv
Формат : Matroska
Версия формата : Version 4 / Version 2
Размер файла : 534 Мбайт
Продолжительность : 4 м. 4 с.
Общий поток : 18,3 Мбит/сек
Название фильма : Nicole Scherzinger - Your Love « R.G 60-FPS Rip By Kamikkadze »
Дата кодирования : UTC 2015-07-18 15:24:02
Программа кодирования : mkvmerge v7.5.0 ('Glass Culture') 64bit built on Jan 4 2015 16:48:44
Библиотека кодирования : libebml v1.3.1 + libmatroska v1.4.2
DURATION : 00:04:04.992000000
NUMBER_OF_FRAMES : 7656
NUMBER_OF_BYTES : 11759616
_STATISTICS_WRITING_APP : mkvmerge v7.5.0 ('Glass Culture') 64bit built on Jan 4 2015 16:48:44
_STATISTICS_WRITING_DATE_UTC : 2015-07-18 15:24:02
_STATISTICS_TAGS : BPS DURATION NUMBER_OF_FRAMES NUMBER_OF_BYTES

Видео
Идентификатор : 1
Формат : AVC
Формат/Информация : Advanced Video Codec
Профиль формата : High@L4.1
Параметр CABAC формата : Да
Параметр ReFrames формата : 4 кадра
Идентификатор кодека : V_MPEG4/ISO/AVC
Продолжительность : 4 м. 4 с.
Битрейт : 17,8 Мбит/сек
Ширина : 1920 пикселей
Высота : 704 пикселя
Соотношение сторон : 2,727
Режим частоты кадров : Постоянный
Частота кадров : 59,880 кадров/сек
Частота кадров в оригинале : 59,940 кадров/сек
Цветовое пространство : YUV
Субдискретизация насыщенности : 4:2:0
Битовая глубина : 8 бит
Тип развёртки : Прогрессивная
Бит/(Пиксели*Кадры) : 0.220
Размер потока : 512 Мбайт (96%)
Библиотека кодирования : x264 core 146 r2538 121396c
Настройки программы : cabac=1 / ref=3 / deblock=1:-1:-1 / analyse=0x3:0x113 / me=hex / subme=7 / psy=1 / psy_rd=1.00:0.15 / mixed_ref=1 / me_range=16 / chroma_me=1 / trellis=1 / 8x8dct=1 / cqm=0 / deadzone=21,11 / fast_pskip=1 / chroma_qp_offset=-3 / threads=6 / lookahead_threads=1 / sliced_threads=0 / nr=0 / decimate=1 / interlaced=0 / bluray_compat=0 / constrained_intra=0 / bframes=3 / b_pyramid=2 / b_adapt=1 / b_bias=0 / direct=3 / weightb=1 / open_gop=0 / weightp=2 / keyint=250 / keyint_min=25 / scenecut=40 / intra_refresh=0 / rc_lookahead=40 / rc=2pass / mbtree=1 / bitrate=17800 / ratetol=1.0 / qcomp=0.60 / qpmin=0 / qpmax=69 / qpstep=4 / cplxblur=20.0 / qblur=0.5 / ip_ratio=1.40 / aq=1:1.00
Язык : English
Default : Да
Forced : Нет

Аудио
Идентификатор : 2
Формат : AC-3
Формат/Информация : Audio Coding 3
Расширение режима : CM (complete main)
Параметр Endianness формата : Big
Идентификатор кодека : A_AC3
Продолжительность : 4 м. 4 с.
Вид битрейта : Постоянный
Битрейт : 384 Кбит/сек
Каналы : 2 канала
Расположение каналов : Front: L R
Частота : 48,0 КГц
Битовая глубина : 16 бит
Метод сжатия : С потерями
Размер потока : 11,2 Мбайт (2%)
Язык : English
Default : Да
Forced : Нет

pb.wtf



Скачать Nicole Scherzinger - Your Love через торрент http://i68.fastpic.ru/big/2015/0825/cb/c2740360784335085e8799da27a56acb.jpg Скачать, смотреть онлайн Nicole Scherzinger - Your Love бесплантно в хорошем качестве Год выпуска: 2014Жанр: ПопПродолжительность: ... 10 10 1
Торрент: Зарегистрирован [2015-08-23 16:25] · скачан: 44 раз
Статус: √ проверено
Размер: 534 MB
Как cкачать? Как скачать Nicole Scherzinger - Your Love через торрент | UTorrent



Последний раз редактировалось: opupokin (2015-08-25 07:21), всего редактировалось 1 раз

28-11-2019 20:33  

Отключить всю рекламу на сайте

    Дорогой пользователь! Огромная просьба, поблагодарите релизера, оцените раздачу и оставьте свои комментарий, если Вы скачали Nicole Scherzinger - Your Love через торрент бесплатно!
    Комментировать посты могут только пользователи прошедшие не сложную регистрацию
    Показать сообщения:    

    Nicole Scherzinger - Your Love через торрент
    Скачать бесплатно Nicole Scherzinger - Your Love
    Nicole Scherzinger - Your Love скачать торрент
    Nicole Scherzinger - Your Love смотреть онлайн
    Cкачать фильм Nicole Scherzinger - Your Love бесплатно
    Nicole Scherzinger - Your Love скачать торрент в хорошем качестве
    Nicole Scherzinger - Your Love смотреть онлайн бесплатно в хорошем качестве


    Вы не можете начинать темы
    Вы не можете отвечать на сообщения
    Вы не можете редактировать свои сообщения
    Вы не можете удалять свои сообщения
    Вы не можете голосовать в опросах
    Вы не можете прикреплять файлы к сообщениям
    Вы можете скачивать файлы