Ссылка на приватное зеркало всего за 1$. Внимание количество ограничено!!!

iTunes

iTunes

iTunes

1

iTunes

iTunes

iTunes

iTunes

iTunes

30
pack

$ от Little Big

ВАЖНО

!!Акция!!

Alien_RageХит недели

RePack

Resident Evil 21

ИГРА 18+

pack

RePack

jed

!!Акция!!

Alien_Rage

RePack

fifa19

RePack

Assassins Creed: Odyssey

RePack

NEED FOR SPEED™ PAYBACK

4 сезон

9 сезон

Бесстыжие 9 сезон

Все сериалы

все сериалы на PB.wtf

RePack

FAR CRY 5
  

Дорога домой: Невероятное путешествие / Homeward Bound: The Incredible Journey (Дуэйн Данэм) [1993, драма, комедия, приключения, WEB-DL 720p] 2xMVO + AVO pb.wtf

Дорога домой: Невероятное путешествие через торрент pb.wtf

Размер: 3.28 GB | Добавлен: 2 года 10 мес. назад | Торрент скачан:220 раз
Скачать  

23-08-2015 17:56 Дорога домой: Невероятное путешествие Скачать торрент  

Дорога домой: Невероятное путешествие / Homeward Bound: The Incredible Journey

  • Год выхода: 1993
  • Жанр: драма, комедия, приключения, семейный

  • Страна: США
  • Продолжительность: 01:24:28
  • Перевод: Профессиональный (многоголосый); Авторский (одноголосый)
  • Cубтитры: русские, английские
  • Режиссер: Дуэйн Данэм
  • В ролях:

    Майкл Дж. Фокс (Chance, озвучка), Салли Филд (Sassy, озвучка), Дон Амичи (Shadow, озвучка), Роберт Хэйс (Bob Seaver), Ким Грайст (Laura Burnford-Seaver), Кевин Чевалия (Jamie Seaver), Бендж Талл (Peter Burnford), Вероника Лорен (Hope Burnford), Джин Смарт (Kate), Дон Алдер (Molly's Father), Эд Бернард (Desk Sergeant), Энн Кристиансон (Research Assistant)
  • Описание:

    Описание: Хозяева двух собак и очаровательной кошечки Сэсси, вынужденные на время уехать, отдают своих питомцев на ранчо друга. Через некоторое время животные, очутившиеся за сотни миль от любимого дома, начинают беспокоиться, не приключились ли у хозяев неприятности. Поразмыслив, веселая троица решает самостоятельно добраться до дома и пускается в невероятно опасное путешествие по горам и пустыням...

  • Качество: WEB-DL 720p
  • Формат: MKV
  • Видео кодек: AVC
  • Аудио кодек: AAC LC, AC3
  • Видео: AVC, 1280x688 (1.860), 23,976 fps, ~4000 kbps avg
  • Аудио №1: русский / AC3 / 5.1 / 48 kHz / 640 kbps / 16 bit |MVO - «Видеосервис»|
  • Аудио №2: русский / AAC LC / 2.0 / 48 kHz / |MVO - iTunes|
  • Аудио №3: русский / AC3 / 2.0 / 48 kHz / 192 kbps / 16 bit |AVO - В.Горчаков|
  • Аудио №4: украинский / AC3 / 2.0 / 48 kHz / 192 kbps / 16 bit |MVO - «K1»|
  • Аудио №5: английский / AC3 / 5.1 / 48 kHz / 384 kbps / 16 bit
  • Навигация по главам: есть


    General
    Unique ID : 210343059912934332419502996667875939627 (0x9E3E998A65E3389DA6A833EC461F552B)
    Complete name : H:\Homeward.Bound.The.Incredible.Journey.1993.720p.WEB-DL.3xRus.Ukr.Eng.x264-iTunes.mkv
    Format : Matroska
    Format version : Version 2
    File size : 3.28 GiB
    Duration : 1h 24mn
    Overall bit rate : 5 562 Kbps
    Movie name : Homeward Bound: The Incredible Journey (1993) - Release for HDCLUB
    Encoded date : UTC 2015-08-22 19:19:35
    Writing application : mkvmerge v3.4.0 ('Rapunzel') built on May 15 2010 09:38:20
    Writing library : libebml v0.8.0 + libmatroska v0.9.0

    Video
    ID : 1
    Format : AVC
    Format/Info : Advanced Video Codec
    Format profile : High@L3.1
    Format settings, CABAC : No
    Format settings, ReFrames : 2 frames
    Format settings, GOP : N=1
    Codec ID : V_MPEG4/ISO/AVC
    Duration : 1h 24mn
    Width : 1 280 pixels
    Height : 688 pixels
    Display aspect ratio : 1.860
    Frame rate : 23.976 fps
    Color space : YUV
    Chroma subsampling : 4:2:0
    Bit depth : 8 bits
    Scan type : Progressive
    Title : Homeward Bound: The Incredible Journey (1993) - Release for HDCLUB
    Language : English
    Default : Yes
    Forced : No
    Color primaries : BT.709-5, BT.1361, IEC 61966-2-4, SMPTE RP177
    Transfer characteristics : BT.709-5, BT.1361
    Matrix coefficients : BT.709-5, BT.1361, IEC 61966-2-4 709, SMPTE RP177

    Audio #1
    ID : 2
    Format : AC-3
    Format/Info : Audio Coding 3
    Mode extension : CM (complete main)
    Codec ID : A_AC3
    Duration : 1h 24mn
    Bit rate mode : Constant
    Bit rate : 640 Kbps
    Channel(s) : 6 channels
    Channel positions : Front: L C R, Side: L R, LFE
    Sampling rate : 48.0 KHz
    Bit depth : 16 bits
    Compression mode : Lossy
    Stream size : 387 MiB (12%)
    Title : AC3 5.1 @ 640 kbps - MVO, Videoservice
    Language : Russian
    Default : Yes
    Forced : No

    Audio #2
    ID : 3
    Format : AAC
    Format/Info : Advanced Audio Codec
    Format profile : LC
    Codec ID : A_AAC
    Duration : 1h 24mn
    Channel(s) : 2 channels
    Channel positions : Front: L R
    Sampling rate : 48.0 KHz
    Compression mode : Lossy
    Title : AAC 2.0 @ 160 kbps - MVO, iTunes
    Language : Russian
    Default : No
    Forced : No

    Audio #3
    ID : 4
    Format : AC-3
    Format/Info : Audio Coding 3
    Mode extension : CM (complete main)
    Codec ID : A_AC3
    Duration : 1h 24mn
    Bit rate mode : Constant
    Bit rate : 192 Kbps
    Channel(s) : 2 channels
    Channel positions : Front: L R
    Sampling rate : 48.0 KHz
    Bit depth : 16 bits
    Compression mode : Lossy
    Stream size : 116 MiB (3%)
    Title : AC3 2.0 @ 192 kbps - AVO, V. Gorchakov
    Language : Russian
    Default : No
    Forced : No

    Audio #4
    ID : 5
    Format : AC-3
    Format/Info : Audio Coding 3
    Mode extension : CM (complete main)
    Codec ID : A_AC3
    Duration : 1h 24mn
    Bit rate mode : Constant
    Bit rate : 192 Kbps
    Channel(s) : 2 channels
    Channel positions : Front: L R
    Sampling rate : 48.0 KHz
    Bit depth : 16 bits
    Compression mode : Lossy
    Stream size : 116 MiB (3%)
    Title : AC3 2.0 @ 192 kbps - MVO, K1
    Language : Ukrainian
    Default : No
    Forced : No

    Audio #5
    ID : 6
    Format : AC-3
    Format/Info : Audio Coding 3
    Mode extension : CM (complete main)
    Codec ID : A_AC3
    Duration : 1h 24mn
    Bit rate mode : Constant
    Bit rate : 384 Kbps
    Channel(s) : 6 channels
    Channel positions : Front: L C R, Side: L R, LFE
    Sampling rate : 48.0 KHz
    Bit depth : 16 bits
    Compression mode : Lossy
    Stream size : 232 MiB (7%)
    Title : AC3 5.1 @ 384 kbps
    Language : English
    Default : No
    Forced : No

    Text #1
    ID : 7
    Format : UTF-8
    Codec ID : S_TEXT/UTF8
    Codec ID/Info : UTF-8 Plain Text
    Language : Russian
    Default : No
    Forced : No

    Text #2
    ID : 8
    Format : UTF-8
    Codec ID : S_TEXT/UTF8
    Codec ID/Info : UTF-8 Plain Text
    Language : English
    Default : No
    Forced : No

    Menu
    00:00:00.000 : en:1
    00:00:17.000 : en:2
    00:08:11.000 : en:3
    00:12:44.000 : en:4
    00:19:36.000 : en:5
    00:30:17.000 : en:6
    00:31:53.000 : en:7
    00:38:36.000 : en:8
    00:40:59.000 : en:9
    00:47:30.000 : en:10
    00:49:25.000 : en:11
    00:51:14.000 : en:12
    00:56:55.000 : en:13
    01:02:32.000 : en:14
    01:09:39.000 : en:15
    01:14:19.000 : en:16
    01:19:20.000 : en:17
    Скриншоты:


    © Оформление by -Lexx- pb.wtf



  • Скачать Дорога домой: Невероятное путешествие через торрент http://pic.kartinco.top/images/6/stazu.jpg Скачать фильм Дорога домой: Невероятное путешествие через торрент бесплантно в хорошем качестве Описание: Описание: Хозяева двух собак и очаровательной кошечки Сэсси, вынужденные на время уехать, отдают своих питомцев на ранчо друга. ... 9.8 10 12
    Info! Золотая раздача, скачанное не засчитывается.
    Торрент: Зарегистрирован [2017-08-15 17:19] · скачан: 220 раз
    Статус: √ проверено
    Размер: 3.28 GB
    Как cкачать? Как скачать Дорога домой: Невероятное путешествие через торрент | qTorrent



    Последний раз редактировалось: -Lexx- (2017-08-15 17:27), всего редактировалось 3 раз(а)

    28-11-2019 20:33  

    Отключить всю рекламу на сайте

    28-08-2015 09:53 Дорога домой: Невероятное путешествие Скачать торрент  

    Спасибо Добрый -Lexx- pb.wtf
    K-Lexx- писал(а):

    Приятного просмотра.



      Дорогой пользователь! Огромная просьба, поблагодарите релизера, оцените раздачу и оставьте свои комментарий, если Вы скачали Дорога домой: Невероятное путешествие через торрент бесплатно! Внесите свою лепту в развитие PiratBit!
      Комментировать посты могут только пользователи прошедшие не сложную регистрацию
      Показать сообщения:    

      Дорога домой: Невероятное путешествие через торрент
      Скачать бесплатно Дорога домой: Невероятное путешествие
      Дорога домой: Невероятное путешествие скачать торрент
      Дорога домой: Невероятное путешествие смотреть онлайн
      Cкачать фильм Дорога домой: Невероятное путешествие бесплатно
      Дорога домой: Невероятное путешествие скачать торрент в хорошем качестве
      Дорога домой: Невероятное путешествие смотреть онлайн бесплатно в хорошем качестве


      Вы не можете начинать темы
      Вы не можете отвечать на сообщения
      Вы не можете редактировать свои сообщения
      Вы не можете удалять свои сообщения
      Вы не можете голосовать в опросах
      Вы не можете прикреплять файлы к сообщениям
      Вы можете скачивать файлы