>

7.4

iTunes

7.4

2 сезон

9.4

1 сезон

1

7.4

2 сезон

7.2

iTunes

6.0

MVO

13

6.1

iTunes

8.3

Пиратка

30

ULTIMATE

pack

9.9

Лицензия

ВАЖНО

ИГРА 18+

pack

7.3

RePack

MK11

7.7

RePack

jed

7.8

RePack

fifa19

8.5

RePack

RDR2

RePack

NEED FOR SPEED™ PAYBACK

1 сезон

9 сезон

Бесстыжие 9 сезон

Все сериалы

все сериалы на PB.wtf

RePack

FAR CRY 5

Anonymous, доброе утро, мы катастрофически не успеваем собрать деньги на оплату серверов, помогите нам пожалуйста 5,10,15р., для нас важна любая помощь . В качестве благодарности мы отключим Вам всю рекламу на сайте (укажите свой ник в строку Ваше имя)!

×
  
Magnet ссылка

Темные тайны / Dark Places (Жиль Паке-Бреннер / Gilles Paquet-Brenner) [2015, триллер, драма, детектив, BDRip-AVC от potroks] AVO pb.wtf

Темные тайны через торрент pb.wtf

Размер: 1.46 GB | Добавлен: 6 лет 4 мес. назад | Торрент скачан:91 раз
Смотреть онлайн Темные тайны | Скачать    Ребята, помогите собрать деньги на оплату серверов!!!

23-08-2015 19:32 Темные тайны Скачать торрент  

Темные тайны / Dark Places
«In 1985, her entire family was murdered. 30 years later, the truth emerges»
Год выпуска: 2015
Страна: Великобритания, Франция, США / Exclusive Media Group, Mandalay Vision...
Жанр: триллер, драма, детектив
Продолжительность: 01:52:28
Перевод: Авторский (одноголосый) [Матвеев Алексей (Doctor Joker)]
Субтитры: русские, английские
Навигация по главам: есть
Режиссер: Жиль Паке-Бреннер / Gilles Paquet-Brenner
В ролях:

Шарлиз Терон (Libby Day), Стерлинг Джеринс (Young Libby Day), Николас Холт (Lyle Wirth), Кристина Хендрикс (Patty Day), Кори Столл (Ben Day), Тай Шеридан (Young Ben Day), Андреа Рот (Diondra), Хлоя Грейс Морец (Young Diondra), Шон Бриджерс (Runner Day), Дж. ЛаРоуз (Trey Teepano), Шэннон Кук-Чун (Young Trey Trepan), Дженнифер Пирс Матус (Diane)
Описание: Двадцать четыре года назад Либби Дэй пережила страшную трагедию : ночью убили ее мать и двух сестер, в преступлении признается виновным ее старший брат - Бэн Дэй, вина которого не была доказана полностью. Спустя время Либби Дэй решает возобновить расследование и узнать все, что произошло в ту роковую ночь. Готова ли она пережить этот кошмар вновь? На что она готова пойти ради правды? И какие ужасы хранят в себе эти темные тайны?

Качество: BDRip-AVC
Формат: MKV
Видео кодек: AVC
Аудио кодек: AC3
Видео: AVC, 984x410 (2.40:1), 1405 kbps, 24 fps, 0,145 bit/pixel
Аудио: AC3 / 5.1 / 48 kHz / 448 kbps / 16 bit
Релиз группы:
Автор рипа: potroks

Код:

General
Unique ID                                : 209686043954426545016075534092800893612 (0x9DC01027233BA28C831464F014B422AC)
Complete name                            : N:\Триллер\Tyomnyie.Tainy.2015.RUS.BDRip.x264.-HELLYWOOD.mkv
Format                                   : Matroska
Format version                           : Version 4 / Version 2
File size                                : 1.46 GiB
Duration                                 : 1h 52mn
Overall bit rate                         : 1 855 Kbps
Movie name                               : Dark Places (2015) - HELLYWOOD
Encoded date                             : UTC 2015-08-23 19:23:36
Writing application                      : mkvmerge v5.9.0 ('On The Loose') built on Dec 15 2012 16:39:58
Writing library                          : libebml v1.3.0 + libmatroska v1.4.0

Video
ID                                       : 1
Format                                   : AVC
Format/Info                              : Advanced Video Codec
Format profile                           : High@L4.1
Format settings, CABAC                   : Yes
Format settings, ReFrames                : 12 frames
Codec ID                                 : V_MPEG4/ISO/AVC
Duration                                 : 1h 52mn
Bit rate                                 : 1 405 Kbps
Width                                    : 984 pixels
Height                                   : 410 pixels
Display aspect ratio                     : 2.40:1
Frame rate                               : 24.000 fps
Color space                              : YUV
Chroma subsampling                       : 4:2:0
Bit depth                                : 8 bits
Scan type                                : Progressive
Bits/(Pixel*Frame)                       : 0.145
Stream size                              : 1.08 GiB (74%)
Title                                    : potroks
Writing library                          : x264 core 146 r2538 121396c
Encoding settings                        : cabac=1 / ref=12 / deblock=1:-2:-2 / analyse=0x3:0x113 / me=umh / subme=11 / psy=1 / psy_rd=1.02:0.06 / mixed_ref=1 / me_range=48 / chroma_me=1 / trellis=2 / 8x8dct=1 / cqm=0 / deadzone=21,11 / fast_pskip=0 / chroma_qp_offset=-3 / threads=9 / lookahead_threads=2 / sliced_threads=0 / nr=0 / decimate=1 / interlaced=0 / bluray_compat=0 / constrained_intra=0 / bframes=13 / b_pyramid=2 / b_adapt=2 / b_bias=0 / direct=3 / weightb=1 / open_gop=0 / weightp=2 / keyint=250 / keyint_min=23 / scenecut=40 / intra_refresh=0 / rc_lookahead=60 / rc=2pass / mbtree=0 / bitrate=1405 / ratetol=1.0 / qcomp=0.70 / qpmin=0 / qpmax=69 / qpstep=4 / cplxblur=20.0 / qblur=0.5 / vbv_maxrate=14000 / vbv_bufsize=14000 / nal_hrd=none / filler=0 / ip_ratio=1.35 / pb_ratio=1.25 / aq=1:0.80
Language                                 : English
Default                                  : Yes
Forced                                   : No

Audio
ID                                       : 2
Format                                   : AC-3
Format/Info                              : Audio Coding 3
Mode extension                           : CM (complete main)
Codec ID                                 : A_AC3
Duration                                 : 1h 52mn
Bit rate mode                            : Constant
Bit rate                                 : 448 Kbps
Channel(s)                               : 6 channels
Channel positions                        : Front: L C R, Side: L R, LFE
Sampling rate                            : 48.0 KHz
Bit depth                                : 16 bits
Compression mode                         : Lossy
Stream size                              : 360 MiB (24%)
Title                                    : AVO | DD 5.1 @ 448 kbps - A.Matveev
Language                                 : Russian
Default                                  : Yes
Forced                                   : No

Text #1
ID                                       : 3
Format                                   : UTF-8
Codec ID                                 : S_TEXT/UTF8
Codec ID/Info                            : UTF-8 Plain Text
Language                                 : Russian
Default                                  : No
Forced                                   : No

Text #2
ID                                       : 4
Format                                   : UTF-8
Codec ID                                 : S_TEXT/UTF8
Codec ID/Info                            : UTF-8 Plain Text
Language                                 : English
Default                                  : No
Forced                                   : No

Menu
00:00:00.000                             : en:00:00:00.000
00:10:26.375                             : en:00:10:26.375
00:17:56.333                             : en:00:17:56.333
00:30:34.458                             : en:00:30:34.458
00:41:12.208                             : en:00:41:12.208
00:49:07.667                             : en:00:49:07.667
00:59:29.583                             : en:00:59:29.583
01:10:55.792                             : en:01:10:55.792
01:18:01.458                             : en:01:18:01.458
01:29:52.875                             : en:01:29:52.875
01:38:44.542                             : en:01:38:44.542
01:46:12.000                             : en:01:46:12.000

pb.wtf



Скачать Темные тайны через торрент http://i65.fastpic.ru/big/2015/0823/02/24dd7d592a5244e70ed8288d6068e302.png Скачать, смотреть онлайн Темные тайны бесплантно в хорошем качестве Описание: Двадцать четыре года назад Либби Дэй пережила страшную трагедию : ночью убили ее мать и двух сестер, в преступлении признается ... 8.7 10 3
Торрент: Зарегистрирован [2015-08-23 19:32] · скачан: 91 раз
Статус: √ проверено
Размер: 1.46 GB
Как cкачать? Как скачать Темные тайны через торрент | UTorrent

% Раздел Тема Автор DL S | L
Фильмы с авторской озвучкой [ 2.18 GB ] Темные тайны / Dark Places [2015 BDRip-AVC] AVO potroks Скачать
1 | 0
Фильмы с авторской озвучкой [ 3.34 GB ] Темные тайны / Dark Places [2015 BDRip 720p от _denis_100 / NNNB] AVO _denis_100 Скачать
1 | 0
Фильмы с авторской озвучкой [ 1.41 GB ] Темные тайны / Dark Places [2015 WEB-DLRip] [AVO] killermax2013 Скачать
1 | 0

28-11-2019 20:33  

Отключить всю рекламу на сайте

    Дорогой пользователь! Огромная просьба, поблагодарите релизера, оцените раздачу и оставьте свои комментарий, если Вы скачали Темные тайны через торрент бесплатно!
    Комментировать посты могут только пользователи прошедшие не сложную регистрацию
    Показать сообщения:    

    Темные тайны через торрент
    Скачать бесплатно Темные тайны
    Темные тайны скачать торрент
    Темные тайны смотреть онлайн
    Cкачать фильм Темные тайны бесплатно
    Темные тайны скачать торрент в хорошем качестве
    Темные тайны смотреть онлайн бесплатно в хорошем качестве


    Вы не можете начинать темы
    Вы не можете отвечать на сообщения
    Вы не можете редактировать свои сообщения
    Вы не можете удалять свои сообщения
    Вы не можете голосовать в опросах
    Вы не можете прикреплять файлы к сообщениям
    Вы можете скачивать файлы