1 сезон

1 сезон

iTunes

1

КиноПоиск HD

Кинопоиск HD

iTunes

13

1 сезон

RePack

30

Ultimate

ВАЖНО

ИГРА 18+

pack

RePack

MK11
pack

Легкие деньги

RePack

jed

RePack

fifa19

RePack

RDR2

RePack

NEED FOR SPEED™ PAYBACK

4 сезон

9 сезон

Бесстыжие 9 сезон

Все сериалы

все сериалы на PB.wtf

RePack

FAR CRY 5
  
Magnet ссылка

Таинственная река / Mystic River (Клинт Иствуд) [2003 г., триллер, драма, криминал, детектив, HDRip by Dean24] [Дубляж, Лицензия] pb.wtf

Таинственная река через торрент pb.wtf

Размер: 2.18 GB | Добавлен: 5 лет 7 мес. назад | Торрент скачан:153 раза
Скачать  

24-08-2015 09:36 Таинственная река Скачать торрент  

Таинственная река / Mystic RiverГод выпуска: 2003
Страна: США, Австралия
Жанр: триллер, драма, криминал, детектив
Продолжительность: 02:17:56
Перевод: Дубляж, Лицензия
Субтитры: Нет

Режиссер: Клинт Иствуд
Продюссер: Клинт Иствуд, Роберт Лоренц, Брюс Берман
Сценарий: Брайан Хелгеленд, Деннис Лихейн

Бюджет: $25 000 000
Премьера в мире: 23 мая 2003



В ролях: Шон Пенн, Тим Роббинс, Кевин Бейкон, Лоренс Фишбёрн, Марша Гей Харден, Лора Линни, Кевин Чэпмен, Том Гайри, Эмми Россам, Спенсер Трит Кларк

Описание: Джимми Маркум, Дейвид Бойл и Шон Девин — неразлучные приятели с детства. Они вместе играют в хоккей, взрослея на знакомых неспокойных улицах Бостона. Уже во взрослом возрасте судьба сталкивает их вместе перед лицом трагедии: зверского убийства дочери Джимми Маркума — Кэтти.

Качество: HDRip | BDRip 720p
Формат: AVI
Видео кодек: XviD
Аудио кодек: AC3
Видео: 720x304 (2.37:1), 23.976 fps, XviD build 50 ~1874 kbps avg, 0.36 bit/pixel
Аудио: 48 kHz, AC3 Dolby Digital, 3/2 (L,C,R,l,r) + LFE ch, ~384 kbps



Автор рипа: Dean24

Общее
Полное имя : D:\Мои документы\Фильмы\Сайт\Mystic River.HDRip.avi
Формат : AVI
Формат/Информация : Audio Video Interleave
Профиль формата : OpenDML
Размер файла : 2,18 Гбайт
Продолжительность : 2 ч. 17 м.
Общий поток : 2266 Кбит/сек
Программа кодирования : VirtualDubMod 1.5.10.3 | (build 2550/release)
Библиотека кодирования : VirtualDubMod build 2550/release

Видео
Идентификатор : 0
Формат : MPEG-4 Visual
Профиль формата : Advanced Simple@L5
Параметр BVOP формата : 3
Параметр QPel формата : Нет
Параметр GMC формата : Без точки перехода
Параметр матрицы формата : Default (H.263)
Идентификатор кодека : XVID
Идентификатор кодека/Подсказка : XviD
Продолжительность : 2 ч. 17 м.
Битрейт : 1870 Кбит/сек
Ширина : 720 пикселей
Высота : 304 пикселя
Соотношение сторон : 2,35:1
Частота кадров : 23,976 кадра/сек
Цветовое пространство : YUV
Субдискретизация насыщенности : 4:2:0
Битовая глубина : 8 бит
Тип развёртки : Прогрессивная
Метод сжатия : С потерями
Бит/(Пиксели*Кадры) : 0.356
Размер потока : 1,80 Гбайт (83%)
Библиотека кодирования : XviD 1.2.1 (UTC 2008-12-04)

Аудио
Идентификатор : 1
Формат : AC-3
Формат/Информация : Audio Coding 3
Расширение режима : CM (complete main)
Параметр Endianness формата : Big
Идентификатор кодека : 2000
Продолжительность : 2 ч. 17 м.
Вид битрейта : Постоянный
Битрейт : 384 Кбит/сек
Каналы : 6 каналов
Расположение каналов : Front: L C R, Side: L R, LFE
Частота : 48,0 КГц
Битовая глубина : 16 бит
Метод сжатия : С потерями
Размер потока : 379 Мбайт (17%)
Выравнивание : Разделение по промежуткам
Продолжительность промежутка : 42 мс. (1,00 видеокадр)
Время предзагрузки промежутка : 500 мс.

pb.wtf



Скачать Таинственная река через торрент http://i68.fastpic.ru/big/2015/0824/17/72ff16d20c066ad2c855976caff80117.jpg Скачать фильм Таинственная река через торрент бесплантно в хорошем качестве Описание: Джимми Маркум, Дейвид Бойл и Шон Девин — неразлучные приятели с детства. Они вместе играют в хоккей, взрослея на знакомых ... 9.8 10 9
Торрент: Зарегистрирован [2015-08-24 09:36] · скачан: 153 раз
Статус: √ проверено
Размер: 2.18 GB
Как cкачать? Как скачать Таинственная река через торрент | UTorrent

% Раздел Тема Автор DL S | L
Фильмы (Blu-ray, BD-Remux, HDDVD) [ 32.03 GB ] Таинственная река / Mystic River [2003 BD Remux 1080p] DUB+MVO+3xAVO bober100 Скачать
1 | 0
Фильмы [HD 720p, 1080p] (Хороший звук DUB, MVO) [ 9.43 GB ] Таинственная река / Mystic River [2003 BDRip 1080p от _denis_100 / NNNB] DUB MVO 3xAVO _denis_100 Скачать
1 | 0
Фильмы [HD 720p, 1080p] (Хороший звук DUB, MVO) [ 5.85 GB ] Таинственная река / Mystic River [2003 BDRip 720p от _denis_100 / NNNB] DUB MVO 3xAVO _denis_100 Скачать
1 | 0
Фильмы 2001-2005 [ 1.46 GB ] Таинственная река / Mystic River [2003 ... HDRip] MoNaZ Скачать
1 | 0

28-11-2019 20:33  

Отключить всю рекламу на сайте

    Дорогой пользователь! Огромная просьба, поблагодарите релизера, оцените раздачу и оставьте свои комментарий, если Вы скачали Таинственная река через торрент бесплатно! Внесите свою лепту в развитие PiratBit!
    Комментировать посты могут только пользователи прошедшие не сложную регистрацию
    Показать сообщения:    

    Таинственная река через торрент
    Скачать бесплатно Таинственная река
    Таинственная река скачать торрент
    Таинственная река смотреть онлайн
    Cкачать фильм Таинственная река бесплатно
    Таинственная река скачать торрент в хорошем качестве
    Таинственная река смотреть онлайн бесплатно в хорошем качестве


    Вы не можете начинать темы
    Вы не можете отвечать на сообщения
    Вы не можете редактировать свои сообщения
    Вы не можете удалять свои сообщения
    Вы не можете голосовать в опросах
    Вы не можете прикреплять файлы к сообщениям
    Вы можете скачивать файлы