Ссылка на приватное зеркало нашего сайта всего за 1$. Внимание количество ограничено!!!

2 сезон

iTunes

1 сезон

1

2 сезон

2 сезон

iTunes

1 сезон

RePack

30

Ultimate

ВАЖНО

ИГРА 18+

pack

RePack

MK11
pack

Забери бонус

RePack

jed

!!Акция!!

Alien_Rage

RePack

fifa19

RePack

Assassins Creed: Odyssey

RePack

NEED FOR SPEED™ PAYBACK

4 сезон

9 сезон

Бесстыжие 9 сезон

Все сериалы

все сериалы на PB.wtf

RePack

FAR CRY 5
  

Ночь орла / Night of the Eagle (Сидни Хайерс) [1962, ужасы, BDRip 1080p by msltel] VO pb.wtf

Ночь орла через торрент pb.wtf

Размер: 7.76 GB | Добавлен: 5 лет 3 мес. назад | Торрент скачан:5 раз
Скачать  

24-08-2015 11:53 Ночь орла Скачать торрент  

Название: Ночь орла
Оригинальное название: Night of the Eagle
Год выпуска: 1962
Страна: Великобритания
Жанр: ужасы
Продолжительность: 01:29:31
Перевод: любительский одноголосый

Режиссёр: Сидни Хайерс

В ролях: Питер Уингард, Джанет Блэр, Маргарет Джонстон, Энтони Николлс, Колин Гордон, Кэтлин Байрон, Реджинальд Бекуив, Джесика Даннинг, Норман Бёрд, Джудит Стотт

Описание: Профессор колледжа узнаёт, что его жена на протяжении долгих лет супружеской жизни в тайне от него практикует чёрную магию. Будучи резким противником всякого оккультизма, профессор решает положить конец этой её деятельности. Жена, между тем, уверяет, что использует колдовство, чтобы защитить мужа от происков коллег-конкурентов...



Качество: BDRip 1080p Сравнение с исходником
Формат: MKV
Видео кодек: H.264
Аудио кодек: AC3, DTS
Видео: MPEG-4 AVC, 10.5 Mбит/с, 1920x1040, 23,976 кадра/с
Аудио 1: русский, AC3, 192 kbps, 2 ch, 48 kHz [любительский одноголосый, Oneinchnales по переводу linyok]
Аудио 2: английский, DTS, 1509 kbps, 2 ch, 48 kHz [оригинал]
Субтитры: русские (linyok)
Общее
Уникальный идентификатор : 182907449785531245413010688050986261448 (0x899AB1868D3BE2D0B9E23C3D80D49BC8)
Полное имя : D:VideoНочь орла.1962.BDRip.1080p.mkv
Формат : Matroska
Версия формата : Version 4 / Version 2
Размер файла : 7,76 Гбайт
Продолжительность : 1 ч. 29 м.
Общий поток : 12,4 Мбит/сек
Название фильма : BDRip -- STarankov
Дата кодирования : UTC 2015-08-24 01:57:47
Программа кодирования : mkvmerge v8.2.0 ('World of Adventure') 64bit
Библиотека кодирования : libebml v1.3.1 + libmatroska v1.4.2
DURATION : 01:29:31.435000000
NUMBER_OF_FRAMES : 503572
NUMBER_OF_BYTES : 1013186928
_STATISTICS_WRITING_APP : mkvmerge v8.2.0 ('World of Adventure') 64bit
_STATISTICS_WRITING_DATE_UTC : 2015-08-24 01:57:47
_STATISTICS_TAGS : BPS DURATION NUMBER_OF_FRAMES NUMBER_OF_BYTES

Видео
Идентификатор : 1
Формат : AVC
Формат/Информация : Advanced Video Codec
Профиль формата : High@L4.1
Параметр CABAC формата : Да
Параметр ReFrames формата : 4 кадра
Идентификатор кодека : V_MPEG4/ISO/AVC
Продолжительность : 1 ч. 29 м.
Битрейт : 10,5 Мбит/сек
Ширина : 1920 пикселей
Высота : 1040 пикселей
Соотношение сторон : 1,85:1
Режим частоты кадров : Постоянный
Частота кадров : 23,976 кадра/сек
Цветовое пространство : YUV
Субдискретизация насыщенности : 4:2:0
Битовая глубина : 8 бит
Тип развёртки : Прогрессивная
Бит/(Пиксели*Кадры) : 0.219
Размер потока : 6,54 Гбайт (84%)
Библиотека кодирования : x264 core 146 r2538 121396c
Настройки программы : cabac=1 / ref=4 / deblock=1:-3:-3 / analyse=0x3:0x113 / me=umh / subme=10 / psy=1 / psy_rd=1.00:0.15 / mixed_ref=1 / me_range=32 / chroma_me=1 / trellis=2 / 8x8dct=1 / cqm=0 / deadzone=21,11 / fast_pskip=1 / chroma_qp_offset=-3 / threads=6 / lookahead_threads=1 / sliced_threads=0 / nr=0 / decimate=1 / interlaced=0 / bluray_compat=0 / constrained_intra=0 / bframes=12 / b_pyramid=2 / b_adapt=2 / b_bias=0 / direct=1 / weightb=1 / open_gop=0 / weightp=2 / keyint=230 / keyint_min=23 / scenecut=40 / intra_refresh=0 / rc_lookahead=40 / rc=crf / mbtree=0 / crf=21.0 / qcomp=0.60 / qpmin=0 / qpmax=69 / qpstep=4 / vbv_maxrate=40000 / vbv_bufsize=50000 / crf_max=0.0 / nal_hrd=none / filler=0 / ip_ratio=1.40 / pb_ratio=1.30 / aq=1:1.00
Язык : English
Default : Да
Forced : Нет
DURATION : 01:29:31.408000000
NUMBER_OF_FRAMES : 128785
NUMBER_OF_BYTES : 7189094507
_STATISTICS_WRITING_APP : mkvmerge v8.2.0 ('World of Adventure') 64bit
_STATISTICS_WRITING_DATE_UTC : 2015-08-24 01:57:47
_STATISTICS_TAGS : BPS DURATION NUMBER_OF_FRAMES NUMBER_OF_BYTES

Аудио #1
Идентификатор : 2
Формат : AC-3
Формат/Информация : Audio Coding 3
Расширение режима : CM (complete main)
Параметр Endianness формата : Big
Идентификатор кодека : A_AC3
Продолжительность : 1 ч. 29 м.
Вид битрейта : Постоянный
Битрейт : 192 Кбит/сек
Каналы : 2 канала
Расположение каналов : Front: L R
Частота : 48,0 КГц
Метод сжатия : С потерями
Размер потока : 123 Мбайт (2%)
Заголовок : любительский одноголосый, Oneinchnales по переводу linyok)
Язык : Russian
Default : Да
Forced : Нет

Аудио #2
Идентификатор : 3
Формат : DTS
Формат/Информация : Digital Theater Systems
Режим : 16
Параметр Endianness формата : Big
Идентификатор кодека : A_DTS
Продолжительность : 1 ч. 29 м.
Вид битрейта : Постоянный
Битрейт : 1509 Кбит/сек
Каналы : 2 канала
Расположение каналов : Front: L R
Частота : 48,0 КГц
Битовая глубина : 24 бит
Метод сжатия : С потерями
Размер потока : 966 Мбайт (12%)
Заголовок : Original
Язык : English
Default : Нет
Forced : Нет

Текст
Идентификатор : 4
Формат : UTF-8
Идентификатор кодека : S_TEXT/UTF8
Идентификатор кодека/Информация : UTF-8 Plain Text
Заголовок : русский (linyok)
Язык : Russian
Default : Нет
Forced : Нет
pb.wtf



Скачать Ночь орла через торрент http://i69.fastpic.ru/big/2015/0824/1d/5a4b12ec64d32ea002b6e562dfd7011d.jpg Скачать фильм Ночь орла через торрент бесплантно в хорошем качестве Описание: Профессор колледжа узнаёт, что его жена на протяжении долгих лет супружеской жизни в тайне от него практикует чёрную магию. ... 10 10 1
Info! Золотая раздача, скачанное не засчитывается.
Торрент: Зарегистрирован [2015-08-24 11:53] · скачан: 5 раз
Статус: √ проверено
Размер: 7.76 GB
Как cкачать? Как скачать Ночь орла через торрент | qTorrent

% Раздел Тема Автор DL S | L
Фильмы [HD 720p, 1080p] (Звук Cam, VO, DVO) [ 3.21 GB ] Ночь орла / Night of the Eagle [1962 BDRip 720p by msltel] VO msltel Скачать
1 | 0
Фильмы до 2000 г. [ 2.02 GB ] Ночь орла / Night of the Eagle [1962 BDRip AVC by msltel] VO msltel Скачать
1 | 0

28-11-2019 20:33  

Отключить всю рекламу на сайте

    Дорогой пользователь! Огромная просьба, поблагодарите релизера, оцените раздачу и оставьте свои комментарий, если Вы скачали Ночь орла через торрент бесплатно! Внесите свою лепту в развитие PiratBit!
    Комментировать посты могут только пользователи прошедшие не сложную регистрацию
    Показать сообщения:    

    Ночь орла через торрент
    Скачать бесплатно Ночь орла
    Ночь орла скачать торрент
    Ночь орла смотреть онлайн
    Cкачать фильм Ночь орла бесплатно
    Ночь орла скачать торрент в хорошем качестве
    Ночь орла смотреть онлайн бесплатно в хорошем качестве


    Вы не можете начинать темы
    Вы не можете отвечать на сообщения
    Вы не можете редактировать свои сообщения
    Вы не можете удалять свои сообщения
    Вы не можете голосовать в опросах
    Вы не можете прикреплять файлы к сообщениям
    Вы можете скачивать файлы