новый адрес пиратбит piratbit
MEGA NEWS Получи личный уникальный адрес сайта и защити себя от блокировок. Внимание количество ограничено!!!

iTunes

1+1

iTunes

мы

iTunes

1

iTunes

Чернобыль

iTunes

Ральф против интернета

Лицензия

ПШазам

Лицензия

Игра престолов

Лицензия

30
pack

ВАЖНО

!!Акция!!

Alien_RageХит недели

RePack

Resident Evil 21

ИГРА 18+

pack

RePack

Metro:Exodus

!!Акция!!

Alien_Rage

RePack

fifa19

RePack

Assassins Creed: Odyssey

RePack

NEED FOR SPEED™ PAYBACK

3 сезон

9 сезон

Бесстыжие 9 сезон

Все сериалы

все сериалы на PB.wtf

RePack

FAR CRY 5
Ребята, катастрофически не хватает 1900р. для оплаты серверов за АВГУСТ (всвязи с блокировками трафик упал в 3 раза), 1-2р., выручайте.
  

Патриот / The Patriot (Роланд Эммерих) [2000 г., боевик, драма, военный, HDRip by Dean24] (Дубляж, Лицензия / BD CEE) pb.wtf

Патриот через торрент pb.wtf

Размер: 2.94 GB | Добавлен: 4 года 1 мес. назад | Торрент скачан:83 раза
Скачать  

24-08-2015 14:08 Патриот Скачать торрент  

Патриот / The PatriotГод выпуска: 2000
Страна: США, Германия
Жанр: боевик, драма, военный
Продолжительность: 02:44:46
Перевод: Дубляж, Лицензия | BD CEE
Субтитры: Нет

Режиссер: Роланд Эммерих
Продюссер: Дин Девлин, Марк Гордон, Гари Левинсон
Сценарий: Роберт Родат

Бюджет: $110 000 000
Премьера в мире: 27 июня 2000



В ролях: Мэл Гибсон, Хит Леджер, Джоэли Ричардсон, Джейсон Айзекс, Крис Купер, Чеки Карио, Рене Обержонуа, Лиза Бреннер, Том Уилкинсон, Донал Лог

Описание: Когда над страной вспыхнуло смертоносное пламя страшной войны, прославленный ветеран и отец семерых детей Бенджамин Мартин остался в стороне. Но хладнокровное убийство его сына в одночасье меняет всю его жизнь.
Жажда мести превратила воинскую науку в жестокую бойню, а мирного плантатора — в безжалостного командира самого опасного отряда повстанцев…

Качество: HDRip | BDRip 720p
Формат: AVI
Видео кодек: XviD
Аудио кодек: AC3
Видео: 720x304 (2.37:1), 23.976 fps, XviD build 50 ~2163 kbps avg, 0.41 bit/pixel
Аудио: 48 kHz, AC3 Dolby Digital, 3/2 (L,C,R,l,r) + LFE ch, ~384 kbps



Автор рипа: Dean24

Общее
Полное имя : D:\Мои документы\Фильмы\Сайт\The Patriot.HDRip.avi
Формат : AVI
Формат/Информация : Audio Video Interleave
Профиль формата : OpenDML
Размер файла : 2,94 Гбайт
Продолжительность : 2 ч. 44 м.
Общий поток : 2554 Кбит/сек
Программа кодирования : VirtualDubMod 1.5.10.3 | (build 2550/release)
Библиотека кодирования : VirtualDubMod build 2550/release

Видео
Идентификатор : 0
Формат : MPEG-4 Visual
Профиль формата : Advanced Simple@L5
Параметр BVOP формата : 3
Параметр QPel формата : Нет
Параметр GMC формата : Без точки перехода
Параметр матрицы формата : Default (H.263)
Идентификатор кодека : XVID
Идентификатор кодека/Подсказка : XviD
Продолжительность : 2 ч. 44 м.
Битрейт : 2160 Кбит/сек
Ширина : 720 пикселей
Высота : 304 пикселя
Соотношение сторон : 2,35:1
Частота кадров : 23,976 кадра/сек
Цветовое пространство : YUV
Субдискретизация насыщенности : 4:2:0
Битовая глубина : 8 бит
Тип развёртки : Прогрессивная
Метод сжатия : С потерями
Бит/(Пиксели*Кадры) : 0.412
Размер потока : 2,49 Гбайт (85%)
Библиотека кодирования : XviD 1.2.1 (UTC 2008-12-04)

Аудио
Идентификатор : 1
Формат : AC-3
Формат/Информация : Audio Coding 3
Расширение режима : CM (complete main)
Параметр Endianness формата : Big
Идентификатор кодека : 2000
Продолжительность : 2 ч. 44 м.
Вид битрейта : Постоянный
Битрейт : 384 Кбит/сек
Каналы : 6 каналов
Расположение каналов : Front: L C R, Side: L R, LFE
Частота : 48,0 КГц
Битовая глубина : 16 бит
Метод сжатия : С потерями
Размер потока : 453 Мбайт (15%)
Выравнивание : Разделение по промежуткам
Продолжительность промежутка : 42 мс. (1,00 видеокадр)
Время предзагрузки промежутка : 500 мс.

pb.wtf



Скачать Патриот через торрент http://i71.fastpic.ru/big/2015/0824/63/e73ffb0a5fbd1994bd102c85a5abc463.jpg Скачать фильм Патриот через торрент бесплантно в хорошем качестве Описание: Когда над страной вспыхнуло смертоносное пламя страшной войны, прославленный ветеран и отец семерых детей Бенджамин Мартин ... 10 10 21
Info! Золотая раздача, скачанное не засчитывается.
Торрент: Зарегистрирован [2015-08-24 14:08] · скачан: 83 раз
Статус: √ проверено
Размер: 2.94 GB
Как cкачать? Как скачать Патриот через торрент | qTorrent

% Раздел Тема Автор DL S | L
Ultra HD (UHD: 2K, 4K, 8K) — видео сверхвысокой чёткости [ 41.07 GB ] Патриот / The Patriot [2000 военный UHD BDRip 2160p] DUB [Театральная версия] sheker187 Скачать
1 | 0
Ultra HD (UHD: 2K, 4K, 8K) — видео сверхвысокой чёткости [ 78.95 GB ] Патриот / The Patriot [2000 военный UHD BDRemux 2160p] DUB + 2xMVO + 2xAVO [Театральная версия] sheker187 Скачать
1 | 0
Ultra HD (UHD: 2K, 4K, 8K) — видео сверхвысокой чёткости [ 84.46 GB ] Патриот / The Patriot [2000 военный UHD Blu-Ray EUR 2160p] [Театральная версия] sheker187 Скачать
1 | 0
Фильмы [HD 720p, 1080p] (Хороший звук DUB, MVO) [ 8.4 GB ] Патриот / The Patriot [2000 военный BDRip 720p] [Театральная версия] -Lexx- Скачать
2 | 0
Фильмы (HD 720p, 1080p) (48-60 fps) [ 18.71 GB ] Патриот / The Patriot [2000 Германия военный BDRip 1080p / 60 FPSExtended Cut со вставками] Tiberiumsun69 Скачать
1 | 0
Фильмы (Blu-ray, BD-Remux, HDDVD) [ 44.66 GB ] Патриот / The Patriot [2000 военный BD Remux +MVO+VO] Ворон Скачать
1 | 0
Фильмы до 2000 г. [ 2.1 GB ] Патриот / The Patriot [2000 военный HDRip] кэп Скачать
1 | 0


>> Регистрируемся здесь <<






Отзывы и комментарии о схеме читаем и пишем здесь: ---> Отзывы и комментарии о схеме

Новые благодарочки в телеграм довольных пользователей:
скриншот   скриншот   скриншот   скриншот   скриншот

24-08-2015 22:21 Патриот Скачать торрент  

Хороший фильм! Спасибоpb.wtf



25-08-2015 04:07 Патриот Скачать торрент  

Dean24, Рад твоему возвращению ) жду ещё больше рипов =)pb.wtf



    Дорогой пользователь! Огромная просьба, поблагодарите релизера, оцените раздачу и оставьте свои комментарий, если Вы скачали Патриот через торрент бесплатно! Внесите свою лепту в развитие PiratBit!
    Комментировать посты могут только пользователи прошедшие не сложную регистрацию
    Показать сообщения:    

    Патриот через торрент
    Скачать бесплатно Патриот
    Патриот скачать торрент
    Патриот смотреть онлайн
    Cкачать фильм Патриот бесплатно
    Патриот скачать торрент в хорошем качестве
    Патриот смотреть онлайн бесплатно в хорошем качестве


    Вы не можете начинать темы
    Вы не можете отвечать на сообщения
    Вы не можете редактировать свои сообщения
    Вы не можете удалять свои сообщения
    Вы не можете голосовать в опросах
    Вы не можете прикреплять файлы к сообщениям
    Вы можете скачивать файлы