MEGA SALE -50% FORZA HORIZON 4 ULTIMATE+ВСЕ DLC+ОНЛАЙН всего за 599р. 299 руб. (супер цена). Внимание количество ограничено!!!

iTunes

1+1

iTunes

мы

iTunes

1

iTunes

Чернобыль

iTunes

Ральф против интернета

Лицензия

ПШазам

Лицензия

Игра престолов

Лицензия

30
pack

ВАЖНО

!!Акция!!

Alien_RageХит недели

RePack

Resident Evil 21

ИГРА 18+

pack

RePack

Metro:Exodus

!!Акция!!

Alien_Rage

RePack

fifa19

RePack

Assassins Creed: Odyssey

RePack

NEED FOR SPEED™ PAYBACK

3 сезон

9 сезон

Бесстыжие 9 сезон

Все сериалы

все сериалы на PB.wtf

RePack

FAR CRY 5
Ребята, катастрофически не хватает 7730р. для оплаты серверов за АВГУСТ (всвязи с блокировками трафик упал в 3 раза), 1-2р., выручайте.
  

Робин Гуд: Принц воров / Robin Hood: Prince of Thieves (Кевин Рейнольдс) [1991 г., боевик, драма, мелодрама, приключения, HDRip by Dean24] (Профессиональный многоголосый, Лицензия) pb.wtf

Робин Гуд: Принц воров через торрент pb.wtf

Размер: 2.96 GB | Добавлен: 4 года назад | Торрент скачан:70 раз
Скачать  

26-08-2015 08:45 Робин Гуд: Принц воров Скачать торрент  

Робин Гуд: Принц воров / Robin Hood: Prince of ThievesГод выпуска: 1991
Страна: США
Жанр: боевик, драма, мелодрама, приключения
Продолжительность: 02:35:03 | Режиссерская версия
Перевод: Профессиональный многоголосый | Лицензия
Субтитры: Нет

Режиссер: Кевин Рейнольдс
Продюссер: Пен Деншэм, Ричард Бартон Льюис, Джон Уотсон
Сценарий: Пен Деншэм, Джон Уотсон

Бюджет: $48 000 000
Премьера в мире: 14 июня 1991



В ролях: Кевин Костнер, Морган Фриман, Мэри Элизабет Мастрантонио, Кристиан Слэйтер, Алан Рикман, Джеральдин МакЮэн, Майкл МакШейн, Брайан Блессид, Майкл Уинкотт, Ник Бримбл

Описание: Немногие вернулись из Крестового похода. Робину из Локсли, чтобы избежать гибели в заточении у неверных, пришлось воспользоваться помощью одного из узников-мусульман: религиозных врагов сплотило общее несчастье. Но самые большие угрозы ожидают героя со стороны единоверцев: английский трон захвачен самозванцем!
Только зеленый лес, только потерявшие все, и готовые на все друзья, только вера в свою правоту помогут Робину выстоять в неравной борьбе. А его врагов заставят содрогаться от зловещего свиста летящих ниоткуда метких стрел.

Качество: HDRip | BDRip 720p
Формат: AVI
Видео кодек: XviD
Аудио кодек: AC3
Видео: 704x384 (1.83:1), 23.976 fps, XviD build 50 ~2343 kbps avg, 0.36 bit/pixel
Аудио: 48 kHz, AC3 Dolby Digital, 3/2 (L,C,R,l,r) + LFE ch, ~384 kbps



Автор рипа: Dean24

Общее
Полное имя : D:\Мои документы\Фильмы\Сайт\Robin.Hood.Prince of Thieves.HDRip.avi
Формат : AVI
Формат/Информация : Audio Video Interleave
Профиль формата : OpenDML
Размер файла : 2,96 Гбайт
Продолжительность : 2 ч. 35 м.
Общий поток : 2734 Кбит/сек
Программа кодирования : VirtualDubMod 1.5.10.3 | (build 2550/release)
Библиотека кодирования : VirtualDubMod build 2550/release

Видео
Идентификатор : 0
Формат : MPEG-4 Visual
Профиль формата : Advanced Simple@L5
Параметр BVOP формата : 3
Параметр QPel формата : Нет
Параметр GMC формата : Без точки перехода
Параметр матрицы формата : Default (H.263)
Идентификатор кодека : XVID
Идентификатор кодека/Подсказка : XviD
Продолжительность : 2 ч. 35 м.
Битрейт : 2340 Кбит/сек
Ширина : 704 пикселя
Высота : 384 пикселя
Соотношение сторон : 1,85:1
Частота кадров : 23,976 кадра/сек
Цветовое пространство : YUV
Субдискретизация насыщенности : 4:2:0
Битовая глубина : 8 бит
Тип развёртки : Прогрессивная
Метод сжатия : С потерями
Бит/(Пиксели*Кадры) : 0.361
Размер потока : 2,53 Гбайт (86%)
Библиотека кодирования : XviD 1.2.1 (UTC 2008-12-04)

Аудио
Идентификатор : 1
Формат : AC-3
Формат/Информация : Audio Coding 3
Расширение режима : CM (complete main)
Параметр Endianness формата : Big
Идентификатор кодека : 2000
Продолжительность : 2 ч. 35 м.
Вид битрейта : Постоянный
Битрейт : 384 Кбит/сек
Каналы : 6 каналов
Расположение каналов : Front: L C R, Side: L R, LFE
Частота : 48,0 КГц
Битовая глубина : 16 бит
Метод сжатия : С потерями
Размер потока : 426 Мбайт (14%)
Выравнивание : Разделение по промежуткам
Продолжительность промежутка : 42 мс. (1,00 видеокадр)
Время предзагрузки промежутка : 500 мс.

pb.wtf



Скачать Робин Гуд: Принц воров через торрент http://i67.fastpic.ru/big/2015/0826/8b/6c41f27b8ffb0386c1eda1dbfbdd7d8b.jpg Скачать фильм Робин Гуд: Принц воров через торрент бесплантно в хорошем качестве Описание: Немногие вернулись из Крестового похода. Робину из Локсли, чтобы избежать гибели в заточении у неверных, пришлось воспользоваться ... 10 10 6
Торрент: Зарегистрирован [2015-08-26 08:45] · скачан: 70 раз
Статус: √ проверено
Размер: 2.96 GB
Как cкачать? Как скачать Робин Гуд: Принц воров через торрент | qTorrent

% Раздел Тема Автор DL S | L
Фильмы (HD 720p, 1080p) (48-60 fps) [ 7.32 GB ] Робин Гуд: Принц воров / Robin Hood: Prince of Thieves [1991 BDRip 720p ] Extended Version от R.G. HD-Films slaventi-69 Скачать
1 | 0
Фильмы [HD 720p, 1080p] (Хороший звук DUB, MVO) [ 11.49 GB ] Робин Гуд: Принц воров / Robin Hood: Prince of Thieves [1991 BDRip 1080p [ - ][Расширенная версия / Extended Cut] flatro1 Скачать
1 | 0


>> Регистрируемся здесь <<






Отзывы и комментарии о схеме читаем и пишем здесь: ---> Отзывы и комментарии о схеме

Новые благодарочки в телеграм довольных пользователей:
скриншот   скриншот   скриншот   скриншот   скриншот
    Дорогой пользователь! Огромная просьба, поблагодарите релизера, оцените раздачу и оставьте свои комментарий, если Вы скачали Робин Гуд: Принц воров через торрент бесплатно! Внесите свою лепту в развитие PiratBit!
    Комментировать посты могут только пользователи прошедшие не сложную регистрацию
    Показать сообщения:    

    Робин Гуд: Принц воров через торрент
    Скачать бесплатно Робин Гуд: Принц воров
    Робин Гуд: Принц воров скачать торрент
    Робин Гуд: Принц воров смотреть онлайн
    Cкачать фильм Робин Гуд: Принц воров бесплатно
    Робин Гуд: Принц воров скачать торрент в хорошем качестве
    Робин Гуд: Принц воров смотреть онлайн бесплатно в хорошем качестве


    Вы не можете начинать темы
    Вы не можете отвечать на сообщения
    Вы не можете редактировать свои сообщения
    Вы не можете удалять свои сообщения
    Вы не можете голосовать в опросах
    Вы не можете прикреплять файлы к сообщениям
    Вы можете скачивать файлы