Ссылка на приватное зеркало всего за 1$. Внимание количество ограничено!!!

iTunes

iTunes

iTunes

1

iTunes

iTunes

iTunes

WEBRip

iTunes

30
pack

$ от Little Big

ВАЖНО

!!Акция!!

Alien_RageХит недели

RePack

Resident Evil 21

ИГРА 18+

pack

RePack

jed

!!Акция!!

Alien_Rage

RePack

fifa19

RePack

Assassins Creed: Odyssey

RePack

NEED FOR SPEED™ PAYBACK

4 сезон

9 сезон

Бесстыжие 9 сезон

Все сериалы

все сериалы на PB.wtf

RePack

FAR CRY 5
  

Ночная бригада / The Night Crew (Кристиан Сесма) [2015, боевик, триллер, HDRip, Дубляж - Лицензия / iTunes] pb.wtf

Ночная бригада через торрент pb.wtf

Размер: 1.37 GB | Добавлен: 4 года 11 мес. назад | Торрент скачан:1304 раза
Скачать  

26-08-2015 09:34 Ночная бригада Скачать торрент  

Ночная бригада / The Night Crew


Год выпуска: 2015
Страна: США
Жанр: боевик, триллер

Продолжительность: 01:28:38
Перевод: Дубляж - [Лицензия / iTunes]
Режиссер: Кристиан Сесма
В ролях:

Дэнни Трехо (Aguilar), Джейсон Мьюз (Chachi), Чести Бальестерос (Mae), Люк Госс (Wade), Букем Вудбайн (Crenshaw), Кристин Нгуйен (Sabrina), Жаклин Лорд (Myra), Бруна Рубио (Jill), Роберто «Санс» Санчес (Gus), Лусиана Фолхебер (Rose), Дэнни Грюнберг (Nightclub Bouncer), Пол Слоун (Ronnie)

Описание:
Команда безбашенных искателей приключений пытается выжить ночью в мотеле посреди пустыни, обороняясь от орды жестоких убийц.
Рейтинг:


Качество: HDRip
Формат: AVI
Видео кодек: XviD
Аудио кодек: AC3
Видео: XviD, 720x400 (16:9), 1813 kbps, 25 fps, 0,252 bpp
Аудио: AC3 / 5.1 / 48 kHz / 384 kbps / 16 bit

Код:

General
Complete name                            : E:\Films\No4n41a.6r1g4d4.2015.P.HDRip.1400Mb.avi
Format                                   : AVI
Format/Info                              : Audio Video Interleave
File size                                : 1.37 GiB
Duration                                 : 1h 28mn
Overall bit rate                         : 2 207 Kbps
Writing application                      : VirtualDubMod 1.5.10.2 (build 2540/release)
Writing library                          : VirtualDubMod build 2540/release

Video
ID                                       : 0
Format                                   : MPEG-4 Visual
Format profile                           : Advanced Simple@L5
Format settings, BVOP                    : 2
Format settings, QPel                    : No
Format settings, GMC                     : No warppoints
Format settings, Matrix                  : Default (MPEG)
Codec ID                                 : XVID
Codec ID/Hint                            : XviD
Duration                                 : 1h 28mn
Bit rate                                 : 1 814 Kbps
Width                                    : 720 pixels
Height                                   : 400 pixels
Display aspect ratio                     : 16:9
Frame rate                               : 25.000 fps
Color space                              : YUV
Chroma subsampling                       : 4:2:0
Bit depth                                : 8 bits
Scan type                                : Progressive
Compression mode                         : Lossy
Bits/(Pixel*Frame)                       : 0.252
Stream size                              : 1.12 GiB (82%)
Writing library                          : XviD 1.2.1 (UTC 2008-12-04)

Audio
ID                                       : 1
Format                                   : AC-3
Format/Info                              : Audio Coding 3
Mode extension                           : CM (complete main)
Codec ID                                 : 2000
Duration                                 : 1h 28mn
Bit rate mode                            : Constant
Bit rate                                 : 384 Kbps
Channel(s)                               : 6 channels
Channel positions                        : Front: L C R, Side: L R, LFE
Sampling rate                            : 48.0 KHz
Bit depth                                : 16 bits
Compression mode                         : Lossy
Stream size                              : 243 MiB (17%)
Alignment                                : Split accross interleaves
Interleave, duration                     : 40 ms (1.00 video frame)
Interleave, preload duration             : 500 ms



pb.wtf



Скачать Ночная бригада через торрент http://i6.imageban.ru/out/2015/08/26/cbecce9329f936d8f9af083785948b99.png Скачать фильм Ночная бригада через торрент бесплантно в хорошем качестве Описание: Команда безбашенных искателей приключений пытается выжить ночью в мотеле посреди пустыни, обороняясь от орды жестоких ... 9.5 10 50
Info! Золотая раздача, скачанное не засчитывается.
Торрент: Зарегистрирован [2015-08-26 09:34] · скачан: 1 304 раз
Статус: √ проверено
Размер: 1.37 GB
Как cкачать? Как скачать Ночная бригада через торрент | qTorrent

28-11-2019 20:33  

Отключить всю рекламу на сайте

27-08-2015 06:23 Ночная бригада Скачать торрент  

Скачали 502 раза и ни единого слова не промолвили. Что-то рейтинг 5.0 смущает просмотреть данный шедевр.pb.wtf



29-08-2015 11:55 Ночная бригада Скачать торрент  

335piratbit писал(а):

Скачали 502 раза и ни единого слова не промолвили. Что-то рейтинг 5.0 смущает просмотреть данный шедевр.

Фильм полный отстой, в стиле киношек по каналу ТВ-3.pb.wtf



30-08-2015 09:02 Ночная бригада Скачать торрент  

Ух ты. И сюда вампиры добрались. И где их только нет... sarcasticpb.wtf



02-09-2015 15:13 Ночная бригада Скачать торрент  

короче,говно фильм,так порешим,да? pb.wtf



03-09-2015 18:40 Ночная бригада Скачать торрент  

Это еще больший ОТСТОЙ, чем "мачете". Трехо позор!!!!!!!!pb.wtf



    Дорогой пользователь! Огромная просьба, поблагодарите релизера, оцените раздачу и оставьте свои комментарий, если Вы скачали Ночная бригада через торрент бесплатно! Внесите свою лепту в развитие PiratBit!
    Комментировать посты могут только пользователи прошедшие не сложную регистрацию
    Показать сообщения:    

    Ночная бригада через торрент
    Скачать бесплатно Ночная бригада
    Ночная бригада скачать торрент
    Ночная бригада смотреть онлайн
    Cкачать фильм Ночная бригада бесплатно
    Ночная бригада скачать торрент в хорошем качестве
    Ночная бригада смотреть онлайн бесплатно в хорошем качестве


    Вы не можете начинать темы
    Вы не можете отвечать на сообщения
    Вы не можете редактировать свои сообщения
    Вы не можете удалять свои сообщения
    Вы не можете голосовать в опросах
    Вы не можете прикреплять файлы к сообщениям
    Вы можете скачивать файлы