2 сезон

iTunes

MVO

1

2 сезон

iTunes

iTunes

1 сезон

RePack

30

Ultimate

ВАЖНО

ИГРА 18+

pack

RePack

MK11
pack

Легкие деньги

RePack

jed

RePack

fifa19

RePack

RDR2

RePack

NEED FOR SPEED™ PAYBACK

4 сезон

9 сезон

Бесстыжие 9 сезон

Все сериалы

все сериалы на PB.wtf

RePack

FAR CRY 5

Anonymous, добрый вечер, мы не успеваем собрать деньги на оплату серверов за декабрь и январь, помогите нам пожалуйста в это трудное время. В качестве благодарности мы отключим Вам всю рекламу на сайте (укажите свой ник в строку Ваше имя)!

×
  
Magnet ссылка

Лок / Locke (Стивен Найт) [2013 г., триллер, драма, HDRip by Dean24] (Профессиональный многоголосый / Baibako) pb.wtf

Лок через торрент pb.wtf

Размер: 1.57 GB | Добавлен: 5 лет 4 мес. назад | Торрент скачан:416 раз
Скачать  

26-08-2015 14:50 Лок Скачать торрент  

Лок / LockeГод выпуска: 2013
Страна: Великобритания, США
Жанр: триллер, драма
Продолжительность: 01:24:49
Перевод: Профессиональный многоголосый | Baibako
Субтитры: Нет

Режиссер: Стивен Найт
Продюссер: Гай Хили, Пол Уэбстер, Чарльз Оти
Сценарий: Стивен Найт

Премьера в мире: 2 сентября 2013



В ролях: Том Харди, Оливия Колман, Рут Уилсон, Эндрю Скотт, Бен Дэниелс, Том Холлэнд, Билл Милнер, Дэниэл Уэбб, Элис Лоу, Сайлас Карсон

Описание: Иван Лок живет размеренной жизнью и очень много работает, чтобы добиться успеха. Завтрашний день — один из важнейших в его жизни, его ждет карьерный рост. Но вечером раздается телефонный звонок, который перевернет его жизнь с ног на голову. Теперь, чтобы выжить, ему предстоит выиграть схватку со временем. У него есть всего 90 минут.

Качество: HDRip | BDRip 720p
Формат: AVI
Видео кодек: XviD
Аудио кодек: AC3
Видео: 720x304 (2.37:1), 23.976 fps, XviD build 50 ~2255 kbps avg, 0.43 bit/pixel
Аудио: 48 kHz, AC3 Dolby Digital, 3/2 (L,C,R,l,r) + LFE ch, ~384 kbps



Автор рипа: Dean24

Общее
Полное имя : D:\Мои документы\Фильмы\Сайт\Locke.HDRip.avi
Формат : AVI
Формат/Информация : Audio Video Interleave
Размер файла : 1,57 Гбайт
Продолжительность : 1 ч. 24 м.
Общий поток : 2649 Кбит/сек
Программа кодирования : VirtualDubMod 1.5.10.3 | (build 2550/release)
Библиотека кодирования : VirtualDubMod build 2550/release

Видео
Идентификатор : 0
Формат : MPEG-4 Visual
Профиль формата : Advanced Simple@L5
Параметр BVOP формата : 3
Параметр QPel формата : Нет
Параметр GMC формата : Без точки перехода
Параметр матрицы формата : Default (H.263)
Идентификатор кодека : XVID
Идентификатор кодека/Подсказка : XviD
Продолжительность : 1 ч. 24 м.
Битрейт : 2256 Кбит/сек
Ширина : 720 пикселей
Высота : 304 пикселя
Соотношение сторон : 2,35:1
Частота кадров : 23,976 кадра/сек
Цветовое пространство : YUV
Субдискретизация насыщенности : 4:2:0
Битовая глубина : 8 бит
Тип развёртки : Прогрессивная
Метод сжатия : С потерями
Бит/(Пиксели*Кадры) : 0.430
Размер потока : 1,34 Гбайт (85%)
Библиотека кодирования : XviD 1.2.1 (UTC 2008-12-04)

Аудио
Идентификатор : 1
Формат : AC-3
Формат/Информация : Audio Coding 3
Расширение режима : CM (complete main)
Параметр Endianness формата : Big
Идентификатор кодека : 2000
Продолжительность : 1 ч. 24 м.
Вид битрейта : Постоянный
Битрейт : 384 Кбит/сек
Каналы : 6 каналов
Расположение каналов : Front: L C R, Side: L R, LFE
Частота : 48,0 КГц
Битовая глубина : 16 бит
Метод сжатия : С потерями
Размер потока : 233 Мбайт (14%)
Выравнивание : Разделение по промежуткам
Продолжительность промежутка : 42 мс. (1,00 видеокадр)
Время предзагрузки промежутка : 500 мс.

pb.wtf



Скачать Лок через торрент http://i68.fastpic.ru/big/2015/0826/f6/422733389b990ebfa50dbeffbc2be5f6.jpg Скачать фильм Лок через торрент бесплантно в хорошем качестве Описание: Иван Лок живет размеренной жизнью и очень много работает, чтобы добиться успеха. Завтрашний день — один из важнейших в его жизни, ... 9.9 10 14
Info! Золотая раздача, скачанное не засчитывается.
Торрент: Зарегистрирован [2015-08-26 14:50] · скачан: 416 раз
Статус: √ проверено
Размер: 1.57 GB
Как cкачать? Как скачать Лок через торрент | UTorrent

% Раздел Тема Автор DL S | L
Фильмы [HD 720p, 1080p] (Хороший звук DUB, MVO) [ 9.15 GB ] Лок / Locke [2013 BDRip 1080p MVO / Baibako / Гараж + VO [R.A.I.M] от R.G. HD-Films Ворон Скачать
1 | 0
Зарубежные сериалы [ 9.58 GB ] Замок и ключ / Ключи Локков / Locke & Key / Сезон: 1 / Серии: 1-10 из 10 [2020 WEB-DL 720p] MVO [LostFilm] bober100 Скачать
2 | 0
Зарубежные сериалы [ 71.89 GB ] Замок и ключ / Ключи Локков / Locke & Key / Сезон: 1 / Серии: 1-10 из 10 [2020 UHD WEB-DL 2160p] DUB [Пифагор / Netflix] bober100 Скачать
1 | 0
Зарубежные сериалы [ 20.71 GB ] Замок и ключ / Ключи Локков / Locke & Key / Сезон: 1 / Серии: 1-10 из 10 [2020 WEB-DL 1080p] MVO [TVShows] bober100 Скачать
1 | 0
Зарубежные сериалы [ 9.58 GB ] Замок и ключ / Ключи Локков / Locke & Key / Сезон: 1 / Серии: 1-10 из 10 [2020 WEB-DL 720p] MVO [NewStudio] bober100 Скачать
1 | 0
Зарубежные сериалы [ 6.61 GB ] Замок и ключ / Ключи Локков / Locke & Key / Сезон: 1 / Серии: 1-10 из 10 [2020 WEB-DLRip] MVO [LostFilm] bober100 Скачать
4 | 0
Зарубежные сериалы [ 21.56 GB ] Замок и ключ / Ключи Локков / Locke & Key / Сезон: 1 / Серии: 1-10 из 10 [2020 WEB-DL 1080p] DUB [Пифагор / Netflix] bober100 Скачать
1 | 0


Последний раз редактировалось: Dean24 (2015-08-26 19:54), всего редактировалось 1 раз

28-11-2019 20:33  

Отключить всю рекламу на сайте

26-08-2015 19:22 Лок Скачать торрент  

Dean24 писал(а):

Перевод: Любительский многоголосый | Baibako

http://pb.wtf/topic/171951/

Цитата:

25. BaibaKo (Есть разные мнения, одни пишут проф.другие любители. У нас на пирате пишем проф (так же как и на большинство известных ресурсах)

Исправьте.pb.wtf



26-08-2015 19:55 Лок Скачать торрент  

Ворон, есть, капитан! :declare:pb.wtf



27-08-2015 07:50 Лок Скачать торрент  

ща заценимpb.wtf



27-08-2015 19:33 Лок Скачать торрент  

Честно говоря... бред. Чувак весь фильм едет на машине и говорит сам с собой. Ужас. Ждал хоть какой то развязки, но нет. Шлак.pb.wtf



28-08-2015 14:03 Лок Скачать торрент  

AlexeyM писал(а):

Честно говоря... бред. Чувак весь фильм едет на машине и говорит сам с собой. Ужас. Ждал хоть какой то развязки, но нет. Шлак.

надо посмотреть))pb.wtf



29-08-2015 19:33 Лок Скачать торрент  

AlexeyM писал(а):

Честно говоря... бред. Чувак весь фильм едет на машине и говорит сам с собой. Ужас. Ждал хоть какой то развязки, но нет. Шлак.

Не знаю, не согласен, фильм очень понравился, советую..жизненный...даже под вискарь спокойно посмотрел с переживанием за героя.pb.wtf



31-08-2015 21:28 Лок Скачать торрент  

Знал бы что за фильм - время тратить бы не стал. ИМХО - нереалистично. ГГ одним махом крушит свою карьеру и жизнь, движимый малопонятной мотивацией, и попутно по телефону, не сильно напрягаясь, решает любые вселенские проблемы. В этой аудиокниге видеоряд - слабое место...pb.wtf



    Дорогой пользователь! Огромная просьба, поблагодарите релизера, оцените раздачу и оставьте свои комментарий, если Вы скачали Лок через торрент бесплатно! Внесите свою лепту в развитие PiratBit!
    Комментировать посты могут только пользователи прошедшие не сложную регистрацию
    Показать сообщения:    

    Лок через торрент
    Скачать бесплатно Лок
    Лок скачать торрент
    Лок смотреть онлайн
    Cкачать фильм Лок бесплатно
    Лок скачать торрент в хорошем качестве
    Лок смотреть онлайн бесплатно в хорошем качестве


    Вы не можете начинать темы
    Вы не можете отвечать на сообщения
    Вы не можете редактировать свои сообщения
    Вы не можете удалять свои сообщения
    Вы не можете голосовать в опросах
    Вы не можете прикреплять файлы к сообщениям
    Вы можете скачивать файлы