Доктор Стрэндж

Лицензия

Добыча

Дубляж

Уэнсдэй

1 сезон

Тор

Дубляж

В эфире

Дубляж

Там, где раки поют

MVO

Властелин колец

1 сезон

Deluxe

pack

Рекомендуем

30

Пиратка

ВАЖНО

ВАЖНО

Ghostwire

Пиратка

jed

RePack

nioh2

RePack

RDR2

RePack

NEED FOR SPEED™ PAYBACK

RePack

скачать торрент

Кинопоиск HD

Острые козырьки 6 сезон

6 сезон

FAR CRY 6

RePack

скачать торрент

Лицензия

скачать торрент

MVO

1

1 сезон

скачать торрент

1 сезон

скачать торрент

Лицензия

  

Драйв / Drive (Николас Виндинг Рефн / Nicolas Winding Refn) [2011, США, драма, криминал, BDRip 720p от _denis_100 / NNNB] Дубляж, 2 x AVO

Драйв через торрент pb.wtf

Размер: 4.37 GB | Добавлен: 7 лет 3 мес. назад | Торрент скачан:198 раз
Смотреть онлайн | Скачать   

26-08-2015 15:14 Драйв Скачать торрент  

Драйв / Drive
«Some Heroes Are Real»


Год выпуска: 2011
Страна: США
Жанр: драма, криминал
Продолжительность: 01:40:24
Перевод: Дублированный, Авторский (одноголосый)
Субтитры: русские (Voronine), русские (А.Матвеев), английские, английские (SDH)
Режиссер: Николас Виндинг Рефн
В ролях: Райан Гослинг , Кэри Маллиган , Брайан Крэнстон , Альберт Брукс , Оскар Айзек , Кристина Хендрикс , Рон Перлман , Расс Тэмблин , Джефф Вульф , Джеймс Бибери , Каден Леос , Джо Букаро III
Описание:
Великолепный гонщик - при свете дня он выполняет каскадерские трюки на съёмочных площадках Голливуда, а по ночам ведет рискованную игру. Но один опасный контракт - и за его жизнь назначена награда. Теперь, чтобы остаться в живых и спасти свою очаровательную соседку, он должен делать то, что умеет лучше всего - виртуозно уходить от погони...

R - Лицам до 17 лет обязательно присутствие взрослого
Качество: BDRip 720p
Контейнер (Расширение): MKV
Видео кодек: AVC
Аудио кодек: AC3
Видео: 1280x536, 4120 Кбит/сек, 23,976 кадр/сек, 0,250 Бит/[Пиксели*Кадры]
Аудио №1: русский / AC3 / 5.1 / 48 kHz / 384 kbps / 16 bit |Дублированный, R5|
Аудио №2: русский / AC3 / 5.1 / 48 kHz / 640 kbps / 16 bit |Авторский, Ю.Сербин|
Аудио №3: русский / AC3 / 5.1 / 48 kHz / 448 kbps / 16 bit |Авторский, А.Матвеев|
Аудио №4: английский / AC3 / 5.1 / 48 kHz / 640 kbps / 16 bit
Навигация по главам(Чаптеры): естьАвтор рипа: Сообщество:
  • Фильм снят по мотивам романа Джеймса Саллиса «Драйв» (Drive, 2005). В русском переводе книга выходила также под названием «Гони!».
  • Камера, используемая съемочной группы во время съемки выполнения трюка водителем с полицейской машиной, является Panavision Panaflex System 65 Studio, по-видимому, выданной компанией Panavision на производство в качестве реквизита.
  • Рон Перлман повредил коленную чашечку, когда волна поражала его во время сцены на пляже.
  • Имя главного героя никогда не называется. В финальных титрах он упоминается как «водитель».
  • Райан Гослинг заменил в проекте Хью Джекмана.
  • Николас Виндинг Рефн заменил на режиссерском посту Нила Маршала.
  • Джасинда Бэрретт пробовалась на роль Бланш.
  • Водитель носит часы фирмы Patek Philippe модели Calatrava 5196G.
  • В оригинале Ирэн должна была быть 30-летней латиноамериканкой.
  • Райан Гослинг многие трюки в фильме выполнил самостоятельно, без дублеров.
  • Съемки проходили в Лос-Анджелесе.
  • В фильме герой Гослинга ездит на автомообилях Ford Mustang GT 5,0, Chevy Malibu 1973 года, а в начале фильма скрывается от погони на машине Chevrolet Impala SS.
  • Николас Виндинг Рефн с самого начала решил, что включит в фильме оперную композицию «Oh My Love» 1971 года.
  • Вторая сцена автомобильной гонки с участием Ford Mustang и Chrysler 300 снималась более двух дней, близ Темплинской магистрали, где она отходит к Автостраде 5.
  • Сцена, когда Водитель совершает 270-градусный разворот на своём Mustang, чтобы отстать от Chrysler, снималась одним дублем.
  • Режиссёр был вдохновлён сценой фильма Клода Лелуша «Это - свидание» (1976), где авто несётся по улицам Парижа, а саундтрек заполнен рёвом двигателя, поэтому в сцене преследования такие яркие звуки машин.
  • Несмотря на сложные и реалистичные изображения Лос-Анджелеса, у Николаса Виндинга Рефна не было никакого знания города. Он провел большую часть своего времени с Райаном Гослингом, чтобы узнать город.
  • Водитель носит солнцезащитные очки Selima Optique Money 2 Aviator.
  • На полицейской бирке, которую носит водитель написано «Маккол», это отсылка ассистента художника по реквизиту Даны МакКол (Dana McCall).
  • Сцена топтания головы была сильно урезана при монтаже, так как Американская ассоциация кинокомпаний посчитала её слишком жестокой.
  • Драйвер открывает багажник машины, чтобы достать деньги, но когда он поворачивается лицом к Берни - багажник уже закрыт.
  • В одной из сцен коричневая нашивка на рубашке Драйвера перескакивает с одной стороны груди на другую.
  • Во время взлома машины на герое Райана Гослинга есть перчатки, но когда его показывают с другой стороны - перчаток уже нет.
  • В одной из сцен тахометр на автомобиле показывает 0 RPM - это означает, что машина не едет, а её просто тянут. А в следующих кадрах уже можно заметить реальную работу двигателя, подтвержденную тахометром.
  • После избиения у Стандарта осталась большая рана на левой височной доле. Но по дороге в ломбард рана исчезает.
  • Код:

    Format                                   : Matroska
    Format version                           : Version 2
    File size                                : 4.37 GiB
    Duration                                 : 1h 40mn
    Overall bit rate                         : 6 234 Kbps
    Movie name                               : Drive.(2011).BDRip.720p.[denis100]
    Encoded date                             : UTC 2015-08-26 14:36:13
    Writing application                      : mkvmerge v5.8.0 ('No Sleep / Pillow') built on Sep  2 2012 15:37:04
    Writing library                          : libebml v1.2.3 + libmatroska v1.3.0

    Video
    ID                                       : 1
    Format                                   : AVC
    Format/Info                              : Advanced Video Codec
    Format profile                           : [email protected]
    Format settings, CABAC                   : Yes
    Format settings, ReFrames                : 10 frames
    Codec ID                                 : V_MPEG4/ISO/AVC
    Duration                                 : 1h 40mn
    Bit rate                                 : 4 120 Kbps
    Width                                    : 1 280 pixels
    Height                                   : 536 pixels
    Display aspect ratio                     : 2.40:1
    Frame rate                               : 23.976 fps
    Color space                              : YUV
    Chroma subsampling                       : 4:2:0
    Bit depth                                : 8 bits
    Scan type                                : Progressive
    Bits/(Pixel*Frame)                       : 0.250
    Stream size                              : 2.80 GiB (64%)
    Title                                    : Drive.(2011).BDRip.720p.[denis100]
    Writing library                          : x264 core 148 r2579 73ae2d1
    Encoding settings                        : cabac=1 / ref=10 / deblock=1:-3:-3 / analyse=0x3:0x133 / me=umh / subme=11 / psy=1 / psy_rd=1.00:0.00 / mixed_ref=1 / me_range=32 / chroma_me=1 / trellis=2 / 8x8dct=1 / cqm=0 / deadzone=21,11 / fast_pskip=0 / chroma_qp_offset=-2 / threads=6 / lookahead_threads=1 / sliced_threads=0 / nr=0 / decimate=1 / interlaced=0 / bluray_compat=0 / constrained_intra=0 / bframes=11 / b_pyramid=2 / b_adapt=2 / b_bias=0 / direct=1 / weightb=1 / open_gop=0 / weightp=2 / keyint=240 / keyint_min=23 / scenecut=40 / intra_refresh=0 / rc=2pass / mbtree=0 / bitrate=4120 / ratetol=1.0 / qcomp=0.60 / qpmin=0 / qpmax=69 / qpstep=4 / cplxblur=20.0 / qblur=0.5 / ip_ratio=1.40 / pb_ratio=1.30 / aq=1:1.00
    Language                                 : English
    Default                                  : Yes
    Forced                                   : No

    Audio #1
    ID                                       : 2
    Format                                   : AC-3
    Format/Info                              : Audio Coding 3
    Mode extension                           : CM (complete main)
    Codec ID                                 : A_AC3
    Duration                                 : 1h 40mn
    Bit rate mode                            : Constant
    Bit rate                                 : 384 Kbps
    Channel(s)                               : 6 channels
    Channel positions                        : Front: L C R, Side: L R, LFE
    Sampling rate                            : 48.0 KHz
    Bit depth                                : 16 bits
    Compression mode                         : Lossy
    Stream size                              : 276 MiB (6%)
    Title                                    : Дублированный, R5
    Language                                 : Russian
    Default                                  : Yes
    Forced                                   : No

    Audio #2
    ID                                       : 3
    Format                                   : AC-3
    Format/Info                              : Audio Coding 3
    Mode extension                           : CM (complete main)
    Codec ID                                 : A_AC3
    Duration                                 : 1h 40mn
    Bit rate mode                            : Constant
    Bit rate                                 : 640 Kbps
    Channel(s)                               : 6 channels
    Channel positions                        : Front: L C R, Side: L R, LFE
    Sampling rate                            : 48.0 KHz
    Bit depth                                : 16 bits
    Compression mode                         : Lossy
    Stream size                              : 460 MiB (10%)
    Title                                    : Авторский, Ю.Сербин
    Language                                 : Russian
    Default                                  : No
    Forced                                   : No

    Audio #3
    ID                                       : 4
    Format                                   : AC-3
    Format/Info                              : Audio Coding 3
    Mode extension                           : CM (complete main)
    Codec ID                                 : A_AC3
    Duration                                 : 1h 40mn
    Bit rate mode                            : Constant
    Bit rate                                 : 448 Kbps
    Channel(s)                               : 6 channels
    Channel positions                        : Front: L C R, Side: L R, LFE
    Sampling rate                            : 48.0 KHz
    Bit depth                                : 16 bits
    Compression mode                         : Lossy
    Stream size                              : 322 MiB (7%)
    Title                                    : Одноголосый закадровый, А.Матвеев
    Language                                 : Russian
    Default                                  : No
    Forced                                   : No

    Audio #4
    ID                                       : 5
    Format                                   : AC-3
    Format/Info                              : Audio Coding 3
    Mode extension                           : CM (complete main)
    Codec ID                                 : A_AC3
    Duration                                 : 1h 40mn
    Bit rate mode                            : Constant
    Bit rate                                 : 640 Kbps
    Channel(s)                               : 6 channels
    Channel positions                        : Front: L C R, Side: L R, LFE
    Sampling rate                            : 48.0 KHz
    Bit depth                                : 16 bits
    Compression mode                         : Lossy
    Stream size                              : 460 MiB (10%)
    Language                                 : English
    Default                                  : No
    Forced                                   : No

    Text #1
    ID                                       : 6
    Format                                   : UTF-8
    Codec ID                                 : S_TEXT/UTF8
    Codec ID/Info                            : UTF-8 Plain Text
    Title                                    : Voronine
    Language                                 : Russian
    Default                                  : No
    Forced                                   : No

    Text #2
    ID                                       : 7
    Format                                   : UTF-8
    Codec ID                                 : S_TEXT/UTF8
    Codec ID/Info                            : UTF-8 Plain Text
    Title                                    : А.Матвеев
    Language                                 : Russian
    Default                                  : No
    Forced                                   : No

    Text #3
    ID                                       : 8
    Format                                   : UTF-8
    Codec ID                                 : S_TEXT/UTF8
    Codec ID/Info                            : UTF-8 Plain Text
    Language                                 : English
    Default                                  : No
    Forced                                   : No

    Text #4
    ID                                       : 9
    Format                                   : UTF-8
    Codec ID                                 : S_TEXT/UTF8
    Codec ID/Info                            : UTF-8 Plain Text
    Title                                    : SDH
    Language                                 : English
    Default                                  : No
    Forced                                   : No

    Menu
    00:00:00.000                             : en:00:00:00.000
    00:10:32.715                             : en:00:10:32.715
    00:15:02.443                             : en:00:15:02.443
    00:19:55.110                             : en:00:19:55.110
    00:23:23.443                             : en:00:23:23.443
    00:30:40.338                             : en:00:30:40.338
    00:35:07.438                             : en:00:35:07.438
    00:39:23.444                             : en:00:39:23.444
    00:45:41.155                             : en:00:45:41.155
    00:50:42.581                             : en:00:50:42.581
    00:55:47.427                             : en:00:55:47.427
    01:02:27.744                             : en:01:02:27.744
    01:07:39.722                             : en:01:07:39.722
    01:13:22.481                             : en:01:13:22.481
    01:18:30.455                             : en:01:18:30.455
    01:28:53.578                             : en:01:28:53.578

    x264 [info]: frame I:904 Avg QP:12.60 size:134727
    x264 [info]: frame P:29230 Avg QP:14.91 size: 43193
    x264 [info]: frame B:114299 Avg QP:16.23 size: 15027



    Скачать Драйв через торрент http://i68.fastpic.ru/big/2015/0826/a7/49f118db6fb53c0eb6367f59ddb853a7.png Скачать, смотреть онлайн Драйв бесплантно в хорошем качестве Описание:Великолепный гонщик - при свете дня он выполняет каскадерские трюки на съёмочных площадках Голливуда, а по ночам ведет рискованную ... 10 10 11
    Info! Золотая раздача, скачанное не засчитывается.
    Торрент: Зарегистрирован [2015-08-26 15:14] · скачан: 198 раз
    Статус: √ проверено
    Размер: 4.37 GB
    Как cкачать? Как скачать Драйв через торрент | UTorrent

    28-11-2019 20:33  


    Отключить вcю реклaмy на сайте, в т.ч. и в плеере онлайн просмотра!

      Дорогой пользователь! Огромная просьба, поблагодарите релизера, оцените раздачу и оставьте свои комментарий, если Вы скачали Драйв через торрент бесплатно!!
      Комментировать посты могут только пользователи прошедшие не сложную регистрацию
      Показать сообщения:    


      Драйв через торрент
      Скачать бесплатно Драйв
      Драйв скачать торрент
      Драйв смотреть онлайн
      Cкачать фильм Драйв бесплатно
      Драйв скачать торрент в хорошем качестве
      Драйв смотреть онлайн бесплатно в хорошем качестве
      Вы не можете начинать темы
      Вы не можете отвечать на сообщения
      Вы не можете редактировать свои сообщения
      Вы не можете удалять свои сообщения
      Вы не можете голосовать в опросах
      Вы не можете прикреплять файлы к сообщениям
      Вы можете скачивать файлы
      Драйв / Drive [2011, США, драма, криминал, BDRip 720p от _denis_100 / NNNB] Дубляж, 2 x AVO смотреть онлайн, скачать торрент picoco.icu