Ссылка на приватное зеркало всего за 1$. Внимание количество ограничено!!!

iTunes

iTunes

iTunes

1

iTunes

iTunes

iTunes

iTunes

iTunes

30
pack

$ от Little Big

ВАЖНО

!!Акция!!

Alien_RageХит недели

RePack

Resident Evil 21

ИГРА 18+

pack

RePack

jed

!!Акция!!

Alien_Rage

RePack

fifa19

RePack

Assassins Creed: Odyssey

RePack

NEED FOR SPEED™ PAYBACK

4 сезон

9 сезон

Бесстыжие 9 сезон

Все сериалы

все сериалы на PB.wtf

RePack

FAR CRY 5
  

Вне себя / self less (Тарсем Сингх / Tarsem Singh) [2015, США, фантастика, триллер, детектив, WEB-DL 720p, Дубляж] iTunes pb.wtf

Вне себя через торрент pb.wtf

Размер: 3.48 GB | Добавлен: 4 года 10 мес. назад | Торрент скачан:3708 раз
Скачать  

27-08-2015 00:41 Вне себя Скачать торрент  

Вне себя / self less
«У бессмертия есть побочные эффекты»


  • Год выпуска: 2015
  • Страна: США
  • Жанр: фантастика, триллер, детектив
  • Продолжительность: 01:52:12
  • Перевод: Дубляж - [Лицензия / iTunes]
  • Режиссер: Тарсем Сингх / Tarsem Singh
  • В ролях:

    Райан Рейнольдс (Young Damian), Бен Кингсли (Damian), Натали Мартинес (Madeline), Мэттью Гуд (Albright), Виктор Гарбер (Martin), Дерек Люк (Anton), Джейни-Линн Кинчен (Anna), Мелора Хардин (Judy), Мишель Докери (Claire), Сэмюэл Пейдж (Carl), Брендан МакКарти (Anton 2), Томас Мерфи (Dr. Jensen)

  • Описание:
    В будущем становится возможным победить смерть с помощью имплантации своего сознания в молодое тело, созданное методом генной инженерии. Операция эта дорогостоящая и проводится подпольно, а поэтому доступна лишь ограниченному кругу лиц. Умирающий пожилой бизнесмен решается на это и получает возможность прожить еще одну жизнь. Однако когда ему приоткрывается тайна происхождения нового тела, за ним начинает охоту секретная организация, которая не остановится ни перед чем, чтобы защитить свои интересы.
  • Рейтинг:



  • Качество: WEB-DL 720p
  • Формат: :MKV
  • Видео кодек: AVC
  • Аудио кодек: AC3
  • Видео: 1280x720 (16:9), 3972 kbps, 25 fps, 0,230 bpp
  • Аудио: русский / 5.1 / 48 kHz / 384 kbps / 16 bit |[Лицензия / iTunes]|
  • Релиз от: GEKADOL

    Код:

    General
    Unique ID                                : 225383248224609424125971132351794285373 (0xA98F3C13753782B8A7A55FB7006A8B3D)
    Complete name                            : H:\7elf1ess.2015.D.WEB-DL.720p.mkv
    Format                                   : Matroska
    Format version                           : Version 4 / Version 2
    File size                                : 3.48 GiB
    Duration                                 : 1h 52mn
    Overall bit rate                         : 4 445 Kbps
    Encoded date                             : UTC 2015-08-26 18:15:32
    Writing application                      : mkvmerge v6.9.1 ('Blue Panther') 64bit built on Apr 18 2014 18:23:38
    Writing library                          : libebml v1.3.0 + libmatroska v1.4.1

    Video
    ID                                       : 1
    Format                                   : AVC
    Format/Info                              : Advanced Video Codec
    Format profile                           : Main@L3.1
    Format settings, CABAC                   : No
    Format settings, ReFrames                : 2 frames
    Codec ID                                 : V_MPEG4/ISO/AVC
    Duration                                 : 1h 52mn
    Bit rate                                 : 3 972 Kbps
    Width                                    : 960 pixels
    Height                                   : 720 pixels
    Display aspect ratio                     : 16:9
    Frame rate                               : 25.000 fps
    Color space                              : YUV
    Chroma subsampling                       : 4:2:0
    Bit depth                                : 8 bits
    Scan type                                : Progressive
    Bits/(Pixel*Frame)                       : 0.230
    Stream size                              : 3.11 GiB (89%)
    Language                                 : English
    Default                                  : Yes
    Forced                                   : No
    Color primaries                          : BT.709-5, BT.1361, IEC 61966-2-4, SMPTE RP177
    Transfer characteristics                 : BT.709-5, BT.1361
    Matrix coefficients                      : BT.709-5, BT.1361, IEC 61966-2-4 709, SMPTE RP177

    Audio
    ID                                       : 2
    Format                                   : AC-3
    Format/Info                              : Audio Coding 3
    Mode extension                           : CM (complete main)
    Codec ID                                 : A_AC3
    Duration                                 : 1h 52mn
    Bit rate mode                            : Constant
    Bit rate                                 : 384 Kbps
    Channel(s)                               : 6 channels
    Channel positions                        : Front: L C R, Side: L R, LFE
    Sampling rate                            : 48.0 KHz
    Bit depth                                : 16 bits
    Compression mode                         : Lossy
    Stream size                              : 308 MiB (9%)
    Language                                 : Russian
    Default                                  : Yes
    Forced                                   : No

    Menu
    00:00:00.000                             : en:Глава 1
    00:05:00.000                             : en:Глава 2
    00:10:35.000                             : en:Глава 3
    00:15:50.000                             : en:Глава 4
    00:20:12.000                             : en:Глава 5
    00:25:30.000                             : en:Глава 6
    00:30:14.000                             : en:Глава 7
    00:35:37.000                             : en:Глава 8
    00:42:07.000                             : en:Глава 9
    00:47:04.000                             : en:Глава 10
    00:52:10.000                             : en:Глава 11
    00:56:50.000                             : en:Глава 12
    01:02:12.000                             : en:Глава 13
    01:07:01.000                             : en:Глава 14
    01:12:14.000                             : en:Глава 15
    01:17:09.000                             : en:Глава 16
    01:22:41.000                             : en:Глава 17
    01:27:46.000                             : en:Глава 18
    01:32:49.000                             : en:Глава 19
    01:38:20.000                             : en:Глава 20
    01:43:20.000                             : en:Глава 21




    Скриншоты:



    pb.wtf



  • Скачать Вне себя через торрент http://i1.imageban.ru/out/2015/08/27/864fc37d7b070203e08777721388ef31.jpg Скачать фильм Вне себя через торрент бесплантно в хорошем качестве Описание: В будущем становится возможным победить смерть с помощью имплантации своего сознания в молодое тело, созданное методом генной ... 9.9 10 79
    Info! Золотая раздача, скачанное не засчитывается.
    Торрент: Зарегистрирован [2015-08-27 00:41] · скачан: 3 708 раз
    Статус: √ проверено
    Размер: 3.48 GB
    Как cкачать? Как скачать Вне себя через торрент | qTorrent

    % Раздел Тема Автор DL S | L
    Фильмы 2015 [DVDrip, WEB-DLRip, HDrip] [ 1.46 GB ] Вне себя / Self less [2015 WEB-DLRip] diletant Скачать
    1 | 0
    Фильмы (WEB-DL 720p, 1080p) [ 4.34 GB ] Вне/себя / Self/less [2015 WEB-DL 1080p ] MeMoRiSe Скачать
    1 | 0

    28-11-2019 20:33  

    Отключить всю рекламу на сайте

    29-08-2015 06:52 Вне себя Скачать торрент  

    отличный фильмpb.wtf



    29-08-2015 16:51 Вне себя Скачать торрент  

    32 мегабай не могут скачатся уже полчасаpb.wtf



    31-08-2015 13:45 Вне себя Скачать торрент  

    Фильм бомба! Даже и не слышал ни разу про этот фильм )pb.wtf



    02-09-2015 09:25 Вне себя Скачать торрент  

    норм фильмpb.wtf



    03-09-2015 10:51 Вне себя Скачать торрент  

    Достойное кино, впечатлило! Рекомендую к просмотру, автору спасибо! pb.wtf



    03-09-2015 17:50 Вне себя Скачать торрент  

    ни одного плохого отзыва?!заинтриговало,качаем,тоже не слышал про этот фильм,странноpb.wtf



    08-09-2015 16:16 Вне себя Скачать торрент  

    Супер кино! в конце прослезился))pb.wtf



    28-10-2015 15:52 Вне себя Скачать торрент  

    очень добротное кино-тем более на фоне всякого шлака-который сейчас шлепаютpb.wtf



      Дорогой пользователь! Огромная просьба, поблагодарите релизера, оцените раздачу и оставьте свои комментарий, если Вы скачали Вне себя через торрент бесплатно! Внесите свою лепту в развитие PiratBit!
      Комментировать посты могут только пользователи прошедшие не сложную регистрацию
      Показать сообщения:    

      Вне себя через торрент
      Скачать бесплатно Вне себя
      Вне себя скачать торрент
      Вне себя смотреть онлайн
      Cкачать фильм Вне себя бесплатно
      Вне себя скачать торрент в хорошем качестве
      Вне себя смотреть онлайн бесплатно в хорошем качестве


      Вы не можете начинать темы
      Вы не можете отвечать на сообщения
      Вы не можете редактировать свои сообщения
      Вы не можете удалять свои сообщения
      Вы не можете голосовать в опросах
      Вы не можете прикреплять файлы к сообщениям
      Вы можете скачивать файлы