Ссылка на приватное зеркало нашего сайта всего за 1$. Внимание количество ограничено!!!

2 сезон

iTunes

1 сезон

1

iTunes

iTunes

iTunes

1 сезон

RePack

30

ИГРА 18+

pack

ВАЖНО

!!Акция!!

Alien_RageХит недели

RePack

MK11
pack

Забери бонус

RePack

jed

!!Акция!!

Alien_Rage

RePack

fifa19

RePack

Assassins Creed: Odyssey

RePack

NEED FOR SPEED™ PAYBACK

4 сезон

9 сезон

Бесстыжие 9 сезон

Все сериалы

все сериалы на PB.wtf

RePack

FAR CRY 5
  

Рука - убийца / Idle Hands (Родмен Флендер) [1999, ужасы, триллер, комедия, BDRip 720p by msltel] DUB pb.wtf

Рука - убийца через торрент pb.wtf

Размер: 3.94 GB | Добавлен: 5 лет 2 мес. назад | Торрент скачан:39 раз
Скачать  

28-08-2015 05:41 Рука - убийца Скачать торрент  

Название: Рука - убийца
Оригинальное название: Idle Hands
Год выпуска: 1999
Страна: США
Жанр: ужасы, триллер, комедия
Продолжительность: 01:32:04
Перевод: дублированный

Режиссёр: Родмен Флендер

В ролях: Девон Сава, Сет Грин, Элден Хенсон, Джессика Альба, Вивика А. Фокс, Кристофер Харт, Джек Ноузуорти, Кэти Райт, Шон Уэйлен, Николас Сэдлер, Фред Уиллард, Конни Рэй, Стив Ван Уормер, Келли Монако, Тимоти Стэк, Джои Слотник, Сабрина Лу, Кайл Гэсс, Минди Стерлинг, Донна В. Скотт, Рэнди Оглсби, Молли Мэслин, Карл Гэбриел Йорк, Декстер Холланд, Томас ДеЛонге

Описание: Как-то утром самый ленивый подросток в Америке обнаруживает трупы родителей с оторванными головами и замечает, что его рука стала подозрительно самостоятельной. Оказывается, в него вселились древние силы зла...



Качество: BDRip 720p Сравнение с исходником
Формат: MKV
Видео кодек: H.264
Аудио кодек: AC3
Видео: MPEG-4 AVC, 5168 Кбит/с, 1280х694, 23,976 кадра/с
Аудио 1: русский, AC3, 384 kbps, 6 ch, 48 kHz [дублированный]
Аудио 2: английский, AC3, 448 kbps, 6 ch, 48 kHz [оригинал]
Субтитры 1: русские
Субтитры 2: английские
Общее
Уникальный идентификатор : 232747540124569677950322920928401480236 (0xAF198BB30CD3EEF2B1C00A4CBF20DA2C)
Полное имя : D:\Video\Рука-убийца.1999.BDRip.720p.mkv
Формат : Matroska
Версия формата : Version 4 / Version 2
Размер файла : 3,94 Гбайт
Продолжительность : 1 ч. 32 м.
Общий поток : 6122 Кбит/сек
Название фильма : BDRip -- STarankov
Дата кодирования : UTC 2015-08-27 02:00:30
Программа кодирования : mkvmerge v8.2.0 ('World of Adventure') 64bit
Библиотека кодирования : libebml v1.3.1 + libmatroska v1.4.2
DURATION : 01:29:25.276000000
NUMBER_OF_FRAMES : 1321
NUMBER_OF_BYTES : 37483
_STATISTICS_WRITING_APP : mkvmerge v8.2.0 ('World of Adventure') 64bit
_STATISTICS_WRITING_DATE_UTC : 2015-08-27 02:00:30
_STATISTICS_TAGS : BPS DURATION NUMBER_OF_FRAMES NUMBER_OF_BYTES

Видео
Идентификатор : 1
Формат : AVC
Формат/Информация : Advanced Video Codec
Профиль формата : High@L4.1
Параметр CABAC формата : Да
Параметр ReFrames формата : 9 кадров
Идентификатор кодека : V_MPEG4/ISO/AVC
Продолжительность : 1 ч. 32 м.
Битрейт : 5168 Кбит/сек
Ширина : 1280 пикселей
Высота : 694 пикселя
Соотношение сторон : 1,85:1
Режим частоты кадров : Постоянный
Частота кадров : 23,976 кадра/сек
Цветовое пространство : YUV
Субдискретизация насыщенности : 4:2:0
Битовая глубина : 8 бит
Тип развёртки : Прогрессивная
Бит/(Пиксели*Кадры) : 0.243
Размер потока : 3,32 Гбайт (84%)
Библиотека кодирования : x264 core 146 r2538 121396c
Настройки программы : cabac=1 / ref=9 / deblock=1:-3:-3 / analyse=0x3:0x113 / me=umh / subme=10 / psy=1 / psy_rd=1.00:0.15 / mixed_ref=1 / me_range=32 / chroma_me=1 / trellis=2 / 8x8dct=1 / cqm=0 / deadzone=21,11 / fast_pskip=1 / chroma_qp_offset=-3 / threads=6 / lookahead_threads=1 / sliced_threads=0 / nr=0 / decimate=1 / interlaced=0 / bluray_compat=0 / constrained_intra=0 / bframes=8 / b_pyramid=2 / b_adapt=2 / b_bias=0 / direct=1 / weightb=1 / open_gop=0 / weightp=2 / keyint=230 / keyint_min=23 / scenecut=40 / intra_refresh=0 / rc_lookahead=40 / rc=crf / mbtree=0 / crf=19.7 / qcomp=0.60 / qpmin=0 / qpmax=69 / qpstep=4 / vbv_maxrate=40000 / vbv_bufsize=50000 / crf_max=0.0 / nal_hrd=none / filler=0 / ip_ratio=1.40 / pb_ratio=1.30 / aq=1:1.00
Язык : English
Default : Да
Forced : Нет
DURATION : 01:32:04.519000000
NUMBER_OF_FRAMES : 132456
NUMBER_OF_BYTES : 3651655557
_STATISTICS_WRITING_APP : mkvmerge v8.2.0 ('World of Adventure') 64bit
_STATISTICS_WRITING_DATE_UTC : 2015-08-27 02:00:30
_STATISTICS_TAGS : BPS DURATION NUMBER_OF_FRAMES NUMBER_OF_BYTES

Аудио #1
Идентификатор : 2
Формат : AC-3
Формат/Информация : Audio Coding 3
Расширение режима : CM (complete main)
Параметр Endianness формата : Big
Идентификатор кодека : A_AC3
Продолжительность : 1 ч. 32 м.
Вид битрейта : Постоянный
Битрейт : 384 Кбит/сек
Каналы : 6 каналов
Расположение каналов : Front: L C R, Side: L R, LFE
Частота : 48,0 КГц
Метод сжатия : С потерями
Размер потока : 253 Мбайт (6%)
Заголовок : DUB
Язык : Russian
Default : Да
Forced : Нет

Аудио #2
Идентификатор : 3
Формат : AC-3
Формат/Информация : Audio Coding 3
Расширение режима : CM (complete main)
Параметр Endianness формата : Big
Идентификатор кодека : A_AC3
Продолжительность : 1 ч. 32 м.
Вид битрейта : Постоянный
Битрейт : 448 Кбит/сек
Каналы : 6 каналов
Расположение каналов : Front: L C R, Side: L R, LFE
Частота : 48,0 КГц
Метод сжатия : С потерями
Размер потока : 295 Мбайт (7%)
Заголовок : Original
Язык : English
Default : Нет
Forced : Нет

Текст #1
Идентификатор : 4
Формат : UTF-8
Идентификатор кодека : S_TEXT/UTF8
Идентификатор кодека/Информация : UTF-8 Plain Text
Заголовок : русский
Язык : Russian
Default : Нет
Forced : Нет

Текст #2
Идентификатор : 5
Формат : UTF-8
Идентификатор кодека : S_TEXT/UTF8
Идентификатор кодека/Информация : UTF-8 Plain Text
Заголовок : английский
Default : Нет
Forced : Нет
pb.wtf



Скачать Рука - убийца через торрент http://i67.fastpic.ru/big/2015/0828/c4/2b30d19639a89a5b20bb5b20c562cfc4.jpg Скачать фильм Рука - убийца через торрент бесплантно в хорошем качестве Описание: Как-то утром самый ленивый подросток в Америке обнаруживает трупы родителей с оторванными головами и замечает, что его рука стала ... 8.2 10 5
Info! Серебряная раздача, засчитывается только 50% скачанного.
Торрент: Зарегистрирован [2015-08-28 05:41] · скачан: 39 раз
Статус: √ проверено
Размер: 3.94 GB
Как cкачать? Как скачать Рука - убийца через торрент | qTorrent

% Раздел Тема Автор DL S | L
Фильмы [HD 720p, 1080p] (Хороший звук DUB, MVO) [ 10.42 GB ] Рука - убийца / Idle Hands [1999 BDRip 1080p by msltel] DUB msltel Скачать
1 | 0
Фильмы до 2000 г. [ 2.33 GB ] Рука - убийца / Idle Hands [1999 BDRip AVC by msltel] DUB msltel Скачать
1 | 0

28-11-2019 20:33  

Отключить всю рекламу на сайте

    Дорогой пользователь! Огромная просьба, поблагодарите релизера, оцените раздачу и оставьте свои комментарий, если Вы скачали Рука - убийца через торрент бесплатно! Внесите свою лепту в развитие PiratBit!
    Комментировать посты могут только пользователи прошедшие не сложную регистрацию
    Показать сообщения:    

    Рука - убийца через торрент
    Скачать бесплатно Рука - убийца
    Рука - убийца скачать торрент
    Рука - убийца смотреть онлайн
    Cкачать фильм Рука - убийца бесплатно
    Рука - убийца скачать торрент в хорошем качестве
    Рука - убийца смотреть онлайн бесплатно в хорошем качестве


    Вы не можете начинать темы
    Вы не можете отвечать на сообщения
    Вы не можете редактировать свои сообщения
    Вы не можете удалять свои сообщения
    Вы не можете голосовать в опросах
    Вы не можете прикреплять файлы к сообщениям
    Вы можете скачивать файлы