Ссылка на приватное зеркало всего за 1$. Внимание количество ограничено!!!

OK

1+1

iTunes

мы

OK

1

WEB-DLRip

Джокер

Пифагор

Ведьмак / The Witcher сериал

Лицензия

ПШазам

ОК

Оно 2

iTunes

30
pack

Вам бонус

ВАЖНО

!!Акция!!

Alien_RageХит недели

RePack

Resident Evil 21

ИГРА 18+

pack

RePack

jed

!!Акция!!

Alien_Rage

RePack

fifa19

RePack

Assassins Creed: Odyssey

RePack

NEED FOR SPEED™ PAYBACK

4 сезон

9 сезон

Бесстыжие 9 сезон

Все сериалы

все сериалы на PB.wtf

RePack

FAR CRY 5
  

Retrum (Александр Танк) [2010 г., мистика, драма, DVDRip] pb.wtf

Retrum через торрент pb.wtf

Размер: 1.45 GB | Добавлен: 4 года 4 мес. назад | Торрент скачан:32 раза
Скачать  

28-08-2015 08:49 Retrum Скачать торрент  

RetrumГод выпуска: 2010
Страна: Россия
Жанр: мистика, драма
Продолжительность: 01:22:50

Режиссер: Александр Танк



В ролях: Анна Антонелли, Виталий Коновальчук, Леонид Ворон, Елизавета Нилова, Татьяна Макарова, Андрей Руденский, Лариса Луста, Ольга Медынич, Андрей Смелов, Владимир Литвинов

Описание: В основе сюжета мистика и мечта любого человека найти свою вторую половину. Души погибших юноши и девушки отпускают обратно на землю: если за короткий срок они встретят настоящую любовь, их ждет райская жизнь.

Качество: DVDRip
Формат: AVI
Видео кодек: XviD
Аудио кодек: AC3
Видео: 720x384 (1.875), 25 fps ~ 2115 Kbps
Аудио: 48 KHz 6 ch ~ 384 Kb/s
Общее
Полное имя : Q:\TorF\Retrum.2010.XviD.DVDRip.avi
Формат : AVI
Формат/Информация : Audio Video Interleave
Размер файла : 1,45 Гбайт
Продолжительность : 1 ч. 22 м.
Общий поток : 2509 Кбит/сек
Программа кодирования : VirtualDubMod 1.5.10.2 (build 2540/release)
Библиотека кодирования : VirtualDubMod build 2540/release

Видео
Идентификатор : 0
Формат : MPEG-4 Visual
Профиль формата : Advanced Simple@L5
Параметр BVOP формата : 3
Параметр QPel формата : Нет
Параметр GMC формата : Без точки перехода
Параметр матрицы формата : Default (MPEG)
Идентификатор кодека : XVID
Идентификатор кодека/Подсказка : XviD
Продолжительность : 1 ч. 22 м.
Битрейт : 2116 Кбит/сек
Ширина : 720 пикселей
Высота : 384 пикселя
Соотношение сторон : 1,875
Частота кадров : 25,000 кадров/сек
Цветовое пространство : YUV
Субдискретизация насыщенности : 4:2:0
Битовая глубина : 8 бит
Тип развёртки : Прогрессивная
Метод сжатия : С потерями
Бит/(Пиксели*Кадры) : 0.306
Размер потока : 1,22 Гбайт (84%)
Библиотека кодирования : XviD 1.2.0.dev47 (UTC 2006-11-01)

Аудио
Идентификатор : 1
Формат : AC-3
Формат/Информация : Audio Coding 3
Расширение режима : CM (complete main)
Идентификатор кодека : 2000
Продолжительность : 1 ч. 22 м.
Вид битрейта : Постоянный
Битрейт : 384 Кбит/сек
Каналы : 6 каналов
Расположение каналов : Front: L C R, Side: L R, LFE
Частота : 48,0 КГц
Битовая глубина : 16 бит
Метод сжатия : С потерями
Размер потока : 227 Мбайт (15%)
Выравнивание : Разделение по промежуткам
Продолжительность промежутка : 40 мс. (1,00 видеокадр)
Время предзагрузки промежутка : 500 мс.

pb.wtf



Скачать Retrum через торрент http://pic.kartinco.top/images/11/omu5f.jpg Скачать фильм Retrum через торрент бесплантно в хорошем качестве Описание: В основе сюжета мистика и мечта любого человека найти свою вторую половину. Души погибших юноши и девушки отпускают обратно на ... 7.8 10 4
Info! Золотая раздача, скачанное не засчитывается.
Торрент: Зарегистрирован [2015-08-28 08:49] · скачан: 32 раз
Статус: √ проверено
Размер: 1.45 GB
Как cкачать? Как скачать Retrum через торрент | qTorrent

% Раздел Тема Автор DL S | L
Классика зарубежного кино [ 1.46 GB ] Река не течет вспять / River of No Return [1954 HDRip] [MVO] killermax2013 Скачать
1 | 0
Старые игры [ 1.24 GB ] Return to Castle Wolfenstein Фаргус GOLD [ПираткаRUShooter Action TPS] monaXli Скачать
1 | 0
Гонзо [ 1.18 GB ] Верните Мою Оттраханную Жену Пожалуйста!! / The Return Of Screw My Wife Please!! [2016 All Sex Oral Wives WEB-DLRip 480p] Split Scenes sheker187 Скачать
1 | 0
Action FPS (1st Person) [ 1.82 GB ] Return to Castle Wolfenstein [Repack RU/EN Shooter Action TPS] VANSIK Скачать
3 | 0
Фильмы [HD 720p, 1080p] (Хороший звук DUB, MVO) [ 4.59 GB ] Человек тьмы II: Возвращение Дюрана / Darkman II: The Return of Durant [1994 BDRip 720p by msltel] 2 x MVO 2 x AVO msltel Скачать
1 | 0
Eurodance, Technopop, Disco (сборники) (mp3) [ 1.31 GB ] VA - UK Dancefloor Hits Return 2016 / MP3 / 320 kbps / Eurodance Nu Disco Hands Up Club Happy Sound bober100 Скачать
1 | 0
Зарубежные сериалы [ 22.57 GB ] Беовульф / Beowulf: Return to the Shieldlands / Сезон: 1 / Серии 1-12 из 12 [2016 WEB-DLRip 1080p] MVO BaibaKo MicroCharmelle Скачать
1 | 0

28-11-2019 20:33  

Отключить всю рекламу на сайте

    Дорогой пользователь! Огромная просьба, поблагодарите релизера, оцените раздачу и оставьте свои комментарий, если Вы скачали Retrum через торрент бесплатно! Внесите свою лепту в развитие PiratBit!
    Комментировать посты могут только пользователи прошедшие не сложную регистрацию
    Показать сообщения:    

    Retrum через торрент
    Скачать бесплатно Retrum
    Retrum скачать торрент
    Retrum смотреть онлайн
    Cкачать фильм Retrum бесплатно
    Retrum скачать торрент в хорошем качестве
    Retrum смотреть онлайн бесплатно в хорошем качестве


    Вы не можете начинать темы
    Вы не можете отвечать на сообщения
    Вы не можете редактировать свои сообщения
    Вы не можете удалять свои сообщения
    Вы не можете голосовать в опросах
    Вы не можете прикреплять файлы к сообщениям
    Вы можете скачивать файлы