Ссылка на приватное зеркало нашего сайта всего за 1$. Внимание количество ограничено!!!

2 сезон

iTunes

1 сезон

1

iTunes

iTunes

iTunes

1 сезон

RePack

30

ИГРА 18+

pack

ВАЖНО

!!Акция!!

Alien_RageХит недели

RePack

MK11
pack

Забери бонус

RePack

jed

!!Акция!!

Alien_Rage

RePack

fifa19

RePack

Assassins Creed: Odyssey

RePack

NEED FOR SPEED™ PAYBACK

4 сезон

9 сезон

Бесстыжие 9 сезон

Все сериалы

все сериалы на PB.wtf

RePack

FAR CRY 5
  

Мой самый страшный кошмар / Mon pire cauchemar (Анн Фонтэн) [2011, мелодрама, комедия, BDRip 720p by msltel] MVO pb.wtf

Мой самый страшный кошмар через торрент pb.wtf

Размер: 4.13 GB | Добавлен: 5 лет 1 мес. назад | Торрент скачан:105 раз
Скачать  

28-08-2015 10:04 Мой самый страшный кошмар Скачать торрент  

Название: Мой самый страшный кошмар
Оригинальное название: Mon pire cauchemar
Год выпуска: 2011
Страна: Франция, Бельгия
Жанр: мелодрама, комедия
Продолжительность: 01:39:40
Перевод: профессиональный многоголосый

Режиссёр: Анн Фонтэн

В ролях: Изабель Юппер, Бенуа Пульворд, Андре Дюссолье, Вирджиния Эфира, Орельен Рекуан, Эрик Бергер, Филипп Маньян, Бруно Подалидес

Описание: Она живёт со своим мужем и сыном рядом с Люксембургским дворцом. Он живёт со своим сыном в задней части фургона. Она возглавляет престижный фонд современного искусства. Он вынужден перебиваться случайной работой. Она регулярно встречается с министром культуры. Он встречается только с бутылками алкоголя. Она любит обсуждать разные идеи. Он любит секс с женщинами с большой грудью. Они совершенно не имеют ничего общего и не должны были бы даже встречаться. Но их дети становятся неразлучными, и вскоре им самим предстоит понять почему. Столкновение двух разных миров затронет жизни не только их самих, но и всех окружающих...



Качество: BDRip 720p Сравнение с исходником
Формат: MKV
Видео кодек: H.264
Аудио кодек: AC3
Видео: MPEG-4 AVC, 4988 Кбит/с, 1280x694, 23,976 кадра/с
Аудио 1: русский, AC3, 384 kbps, 6 ch, 48 kHz [профессиональный многоголосый]
Аудио 2: французский, AC3, 448 kbps, 6 ch, 48 kHz [оригинал]
Субтитры: русские
Общее
Уникальный идентификатор : 170997712377645284931350026241083834019 (0x80A4F622D4CB11B6A15CD05C0909FEA3)
Полное имя : D:VideoМой самый страшный кошмар.2011.BDRip.720p.mkv
Формат : Matroska
Версия формата : Version 4 / Version 2
Размер файла : 4,13 Гбайт
Продолжительность : 1 ч. 39 м.
Общий поток : 5938 Кбит/сек
Название фильма : BDRip -- STarankov
Дата кодирования : UTC 2015-08-27 14:20:17
Программа кодирования : mkvmerge v8.2.0 ('World of Adventure') 64bit
Библиотека кодирования : libebml v1.3.1 + libmatroska v1.4.2
DURATION : 01:35:06.956000000
NUMBER_OF_FRAMES : 1403
NUMBER_OF_BYTES : 81388
_STATISTICS_WRITING_APP : mkvmerge v8.2.0 ('World of Adventure') 64bit
_STATISTICS_WRITING_DATE_UTC : 2015-08-27 14:20:17
_STATISTICS_TAGS : BPS DURATION NUMBER_OF_FRAMES NUMBER_OF_BYTES

Видео
Идентификатор : 1
Формат : AVC
Формат/Информация : Advanced Video Codec
Профиль формата : High@L4.1
Параметр CABAC формата : Да
Параметр ReFrames формата : 9 кадров
Идентификатор кодека : V_MPEG4/ISO/AVC
Продолжительность : 1 ч. 39 м.
Битрейт : 4988 Кбит/сек
Ширина : 1280 пикселей
Высота : 694 пикселя
Соотношение сторон : 1,85:1
Режим частоты кадров : Постоянный
Частота кадров : 23,976 кадра/сек
Цветовое пространство : YUV
Субдискретизация насыщенности : 4:2:0
Битовая глубина : 8 бит
Тип развёртки : Прогрессивная
Бит/(Пиксели*Кадры) : 0.234
Размер потока : 3,47 Гбайт (84%)
Библиотека кодирования : x264 core 146 r2538 121396c
Настройки программы : cabac=1 / ref=9 / deblock=1:-1:-1 / analyse=0x3:0x113 / me=umh / subme=10 / psy=1 / psy_rd=1.00:0.15 / mixed_ref=1 / me_range=32 / chroma_me=1 / trellis=2 / 8x8dct=1 / cqm=0 / deadzone=21,11 / fast_pskip=1 / chroma_qp_offset=-3 / threads=6 / lookahead_threads=1 / sliced_threads=0 / nr=0 / decimate=1 / interlaced=0 / bluray_compat=0 / constrained_intra=0 / bframes=9 / b_pyramid=2 / b_adapt=2 / b_bias=0 / direct=1 / weightb=1 / open_gop=0 / weightp=2 / keyint=230 / keyint_min=23 / scenecut=40 / intra_refresh=0 / rc_lookahead=40 / rc=crf / mbtree=0 / crf=19.0 / qcomp=0.60 / qpmin=0 / qpmax=69 / qpstep=4 / vbv_maxrate=40000 / vbv_bufsize=50000 / crf_max=0.0 / nal_hrd=none / filler=0 / ip_ratio=1.40 / pb_ratio=1.30 / aq=1:1.00
Язык : French
Default : Да
Forced : Нет
DURATION : 01:39:40.016000000
NUMBER_OF_FRAMES : 143377
NUMBER_OF_BYTES : 3815023090
_STATISTICS_WRITING_APP : mkvmerge v8.2.0 ('World of Adventure') 64bit
_STATISTICS_WRITING_DATE_UTC : 2015-08-27 14:20:17
_STATISTICS_TAGS : BPS DURATION NUMBER_OF_FRAMES NUMBER_OF_BYTES

Аудио #1
Идентификатор : 2
Формат : AC-3
Формат/Информация : Audio Coding 3
Расширение режима : CM (complete main)
Параметр Endianness формата : Big
Идентификатор кодека : A_AC3
Продолжительность : 1 ч. 39 м.
Вид битрейта : Постоянный
Битрейт : 384 Кбит/сек
Каналы : 6 каналов
Расположение каналов : Front: L C R, Side: L R, LFE
Частота : 48,0 КГц
Метод сжатия : С потерями
Размер потока : 274 Мбайт (6%)
Заголовок : MVO (R5)
Язык : Russian
Default : Да
Forced : Нет

Аудио #2
Идентификатор : 3
Формат : AC-3
Формат/Информация : Audio Coding 3
Расширение режима : CM (complete main)
Параметр Endianness формата : Big
Идентификатор кодека : A_AC3
Продолжительность : 1 ч. 39 м.
Вид битрейта : Постоянный
Битрейт : 448 Кбит/сек
Каналы : 6 каналов
Расположение каналов : Front: L C R, Side: L R, LFE
Частота : 48,0 КГц
Метод сжатия : С потерями
Размер потока : 319 Мбайт (8%)
Заголовок : Original
Язык : French
Default : Нет
Forced : Нет

Текст
Идентификатор : 4
Формат : UTF-8
Идентификатор кодека : S_TEXT/UTF8
Идентификатор кодека/Информация : UTF-8 Plain Text
Заголовок : русский
Язык : Russian
Default : Нет
Forced : Нет
pb.wtf



Скачать Мой самый страшный кошмар через торрент http://i66.fastpic.ru/big/2015/0828/4f/b4b502836c0de8274338b35160052b4f.jpg Скачать фильм Мой самый страшный кошмар через торрент бесплантно в хорошем качестве Описание: Она живёт со своим мужем и сыном рядом с Люксембургским дворцом. Он живёт со своим сыном в задней части фургона. Она возглавляет ... 10 10 3
Info! Золотая раздача, скачанное не засчитывается.
Торрент: Зарегистрирован [2015-08-28 10:04] · скачан: 105 раз
Статус: √ проверено
Размер: 4.13 GB
Как cкачать? Как скачать Мой самый страшный кошмар через торрент | qTorrent

% Раздел Тема Автор DL S | L
Фильмы [HD 720p, 1080p] (Хороший звук DUB, MVO) [ 11.24 GB ] Мой самый страшный кошмар / Mon pire cauchemar [2011 BDRip 1080p by msltel] MVO msltel Скачать
1 | 0
Фильмы 2011 [ 2.39 GB ] Мой самый страшный кошмар / Mon pire cauchemar [2011 BDRip AVC by msltel] MVO msltel Скачать
1 | 0
Фильмы [HD 720p, 1080p] (Хороший звук DUB, MVO) [ 6.03 GB ] Мой самый страшный кошмар / Mon pire cauchemar [2011 BDRip 720p MVO лицензия] Ke$h@ Скачать
1 | 0
Фильмы 2011 [ 1.45 GB ] Мой самый страшный кошмар / Mon pire cauchemar [2011 BDRip-AVC MVO лицензия] rulya74 Скачать
1 | 0
Фильмы 2011 [ 1.46 GB ] Мой самый страшный кошмар / Mon pire cauchemar / 2011 / HDRip maygli Скачать
1 | 0
Фильмы 2011 [ 698 MB ] Мой самый страшный кошмар / Mon pire cauchemar [2011 HDRip] MVO [ лицензия ] -=Cherry=- Скачать
1 | 0

28-11-2019 20:33  

Отключить всю рекламу на сайте

28-08-2015 12:05 Мой самый страшный кошмар Скачать торрент  

по описанию - угарно. а на самом деле чокаво?pb.wtf



    Дорогой пользователь! Огромная просьба, поблагодарите релизера, оцените раздачу и оставьте свои комментарий, если Вы скачали Мой самый страшный кошмар через торрент бесплатно! Внесите свою лепту в развитие PiratBit!
    Комментировать посты могут только пользователи прошедшие не сложную регистрацию
    Показать сообщения:    

    Мой самый страшный кошмар через торрент
    Скачать бесплатно Мой самый страшный кошмар
    Мой самый страшный кошмар скачать торрент
    Мой самый страшный кошмар смотреть онлайн
    Cкачать фильм Мой самый страшный кошмар бесплатно
    Мой самый страшный кошмар скачать торрент в хорошем качестве
    Мой самый страшный кошмар смотреть онлайн бесплатно в хорошем качестве


    Вы не можете начинать темы
    Вы не можете отвечать на сообщения
    Вы не можете редактировать свои сообщения
    Вы не можете удалять свои сообщения
    Вы не можете голосовать в опросах
    Вы не можете прикреплять файлы к сообщениям
    Вы можете скачивать файлы