Ссылка на приватное зеркало нашего сайта всего за 1$. Внимание количество ограничено!!!

2 сезон

iTunes

1 сезон

1

2 сезон

2 сезон

iTunes

1 сезон

RePack

30

Ultimate

ВАЖНО

ИГРА 18+

pack

RePack

MK11
pack

Забери бонус

RePack

jed

!!Акция!!

Alien_Rage

RePack

fifa19

RePack

Assassins Creed: Odyssey

RePack

NEED FOR SPEED™ PAYBACK

4 сезон

9 сезон

Бесстыжие 9 сезон

Все сериалы

все сериалы на PB.wtf

RePack

FAR CRY 5
  

Зверинец / Zoo / Сезон: 1 / Серии 1-13 из 13 (Майкл Кэтлман / Michael Katleman, Стивен А. Эделсон / Steven A. Adelson, Брэд Андерсон / Brad Anderson) [2015, США, фантастика, триллер, драма, WEB-DLRip-AVC] MVO [BaibaKo] pb.wtf

Зверинец через торрент pb.wtf

Размер: 10.78 GB | Добавлен: 5 лет 2 мес. назад | Торрент скачан:108 раз
Скачать  

28-08-2015 12:32 Зверинец Скачать торрент  

Зверинец / Zoo


  • Год выпуска: 2015
  • Страна: США
  • Жанр: фантастика, триллер, драма
  • Продолжительность: 00:40:12 (Серия)
  • Перевод: Профессиональный многоголосый закадровый [BaibaKo]

  • Режиссер: Майкл Кэтлман / Michael Katleman, Стивен А. Эделсон / Steven A. Adelson, Брэд Андерсон / Brad Anderson
  • В ролях:

    Джеймс Волк (Jackson Oz), Кристен Коннолли (Jamie Campbell), Билли Бёрк (Mitch Morgan), Нора Арнезедер (Chloe Tousignant), Нонсо Анози (Abraham Kenyatta), Карл Ламбли (Delavenne), Маркус Хестер (Evan Lee Hartley), Мэдисон Вульф (Clementine), Ксандер Беркли (Ronnie «Dogstick» Brannigan), Кен Олин (Professor Robert Oz), Джофф Стульц (Agent Ben Shaffer), Стивен Калп (Clayton Burke)

  • Описание:
    В центре сюжета - зоолог Джексон Оз, отвергающий общепринятые взгляды. Находясь в экспедиции в Африке, он начинает замечать странное поведение животных. Когда действия зверей становятся продуманными, скоординированными и приобретают свирепый характер, Оз приступает к поиску разгадки странной пандемии. Пока на планете еще остались места, где человек может укрыться от агрессии братьев меньших...
  • Рейтинг:


  • Качество: WEB-DLRip-AVC
  • Формат: :MPEG-4
  • Видео кодек: AVC
  • Аудио кодек: AC3
  • Видео: 2059 Кбит/сек (2200 Кбит/сек), 1024*576 (16:9), в 23,976 кадра/сек, AVC
  • Аудио №1: Русский 384 Кбит/сек, 48,0 КГц, 16 бит, 6 каналов, AC-3 |[BaibaKo]|
  • Аудио №2: Английский 384 Кбит/сек, 48,0 КГц, 16 бит, 6 каналов, AC-3
  • Релиз от: GEKADOL

    Код:

    Внимание! Раздача ведётся путём добавления новых серий; при каждом добавлении создаётся новый торрент. Чтобы начать докачку новой серии, пользователям необходимо сделать следующее:
    (1) остановить скачивание,
    (2) удалить старый торрент у себя из клиента (старые серии удалять не надо),
    (3) скачать новый торрент и запустить его у себя в клиенте вместо старого, при этом указать клиенту путь в старую папку куда и должно происходить скачивание новых серий.
    Ваш клиент при этом должен произвести хеширование (проверку) старой папки (если не производит сам - помогите ему сделать это), и будет докачивать только те серии которых у вас ещё нет. Старые серии при этом не удаляются, а продолжают раздаваться!
    Eсли вы уже удалили старые серии, то предотвратить повторную закачку старых серий можно, отжав галочку в соответствующих местах при запуске нового торрента. По возможности, желательно не удалять старые серии как можно дольше чтобы релизёр не столько продолжал раздавать старые серии, а смог сконцентрироваться на новых.


    Код:

    Общее
    Полное имя                               : H:\ЗОО\Zoo.s01e09.WEB-DLRip-AVC.Rus.Eng.BaibaKo.tv.mp4
    Формат                                   : MPEG-4
    Профиль формата                          : Base Media
    Идентификатор кодека                     : isom
    Размер файла                             : 814 Мбайт
    Продолжительность                        : 40 м.
    Общий поток                              : 2832 Кбит/сек
    Программа кодирования                    : XviD4PSP 7.0.163
    encoding_info                            : MATROSKA / WEBM > MP4 / H264 > X264 CBR 2200kbps HQ1 / AC3 > AC3 CBR 384kbps / DTS > AC3 CBR 384kbps

    Видео
    Идентификатор                            : 1
    Формат                                   : AVC
    Формат/Информация                        : Advanced Video Codec
    Профиль формата                          : High@L3.1
    Параметр CABAC формата                   : Да
    Параметр ReFrames формата                : 4 кадра
    Идентификатор кодека                     : avc1
    Идентификатор кодека/Информация          : Advanced Video Coding
    Продолжительность                        : 40 м.
    Битрейт                                  : 2059 Кбит/сек
    Номинальный битрейт                      : 2200 Кбит/сек
    Ширина                                   : 1024 пикселя
    Высота                                   : 576 пикселей
    Соотношение сторон                       : 16:9
    Режим частоты кадров                     : Постоянный
    Частота кадров                           : 23,976 кадра/сек
    Цветовое пространство                    : YUV
    Субдискретизация насыщенности            : 4:2:0
    Битовая глубина                          : 8 бит
    Тип развёртки                            : Прогрессивная
    Бит/(Пиксели*Кадры)                      : 0.146
    Размер потока                            : 592 Мбайт (73%)
    Библиотека кодирования                   : x264 core 148 r2579M 73ae2d1
    Настройки программы                      : cabac=1 / ref=3 / deblock=1:-1:-1 / analyse=0x3:0x133 / me=hex / subme=7 / psy=1 / psy_rd=1,00:0,20 / mixed_ref=1 / me_range=16 / chroma_me=1 / trellis=1 / 8x8dct=1 / cqm=0 / deadzone=21,11 / fast_pskip=1 / chroma_qp_offset=-3 / threads=6 / lookahead_threads=1 / sliced_threads=0 / nr=0 / decimate=1 / interlaced=0 / bluray_compat=0 / constrained_intra=0 / bframes=3 / b_pyramid=2 / b_adapt=2 / b_bias=0 / direct=3 / weightb=1 / open_gop=0 / weightp=2 / keyint=230 / keyint_min=23 / scenecut=40 / intra_refresh=0 / rc_lookahead=40 / rc=cbr / mbtree=1 / bitrate=2200 / ratetol=1,0 / qcomp=0,60 / qpmin=0 / qpmax=69 / qpstep=4 / vbv_maxrate=2200 / vbv_bufsize=2200 / nal_hrd=none / filler=0 / ip_ratio=1,40 / aq=1:1,00
    Язык                                     : English
    Цветовой диапазон                        : Limited
    Коэффициенты матрицы                     : BT.709

    Аудио #1
    Идентификатор                            : 2
    Формат                                   : AC-3
    Формат/Информация                        : Audio Coding 3
    Расширение режима                        : CM (complete main)
    Параметр Endianness формата              : Big
    Идентификатор кодека                     : ac-3
    Продолжительность                        : 40 м.
    Вид битрейта                             : Постоянный
    Битрейт                                  : 384 Кбит/сек
    Каналы                                   : 6 каналов
    Расположение каналов                     : Front: L C R, Side: L R, LFE
    Частота                                  : 48,0 КГц
    Битовая глубина                          : 16 бит
    Метод сжатия                             : С потерями
    Размер потока                            : 110 Мбайт (14%)
    Язык                                     : Russian

    Аудио #2
    Идентификатор                            : 3
    Формат                                   : AC-3
    Формат/Информация                        : Audio Coding 3
    Расширение режима                        : CM (complete main)
    Параметр Endianness формата              : Big
    Идентификатор кодека                     : ac-3
    Продолжительность                        : 40 м.
    Вид битрейта                             : Постоянный
    Битрейт                                  : 384 Кбит/сек
    Каналы                                   : 6 каналов
    Расположение каналов                     : Front: L C R, Side: L R, LFE
    Частота                                  : 48,0 КГц
    Битовая глубина                          : 16 бит
    Метод сжатия                             : С потерями
    Размер потока                            : 110 Мбайт (14%)
    Язык                                     : English




    Скриншоты:
    скриншот   скриншот   скриншот   скриншот   скриншот  
    скриншот  

    Раздача ведётся путём добавления новых серий. Добавлена 13 серия (18.09.2015).Просьба перекачать торрент файл.

    pb.wtf



  • Скачать Зверинец через торрент http://i6.imageban.ru/out/2015/08/28/aa572d9a1c2b1eb316fdeecb8c4adb26.jpg Скачать фильм Зверинец через торрент бесплантно в хорошем качестве Описание: В центре сюжета - зоолог Джексон Оз, отвергающий общепринятые взгляды. Находясь в экспедиции в Африке, он начинает замечать ... 9.7 10 15
    Info! Золотая раздача, скачанное не засчитывается.
    Торрент: Зарегистрирован [2015-09-18 01:31] · скачан: 108 раз
    Статус: √ проверено
    Размер: 10.78 GB
    Как cкачать? Как скачать Зверинец через торрент | qTorrent

    % Раздел Тема Автор DL S | L
    Зарубежные сериалы [ 10.68 GB ] Зверинец / Zoo / Сезон: 2 / Серии 1-13 из 13 [2016 WEB-DLRip-AVC MVO] [BaibaKo] GEKADOL Скачать
    1 | 0


    Последний раз редактировалось: GEKADOL (2015-09-18 01:31), всего редактировалось 5 раз(а)

    28-11-2019 20:33  

    Отключить всю рекламу на сайте

    28-08-2015 12:40 Зверинец Скачать торрент  

    как сериал-интересный?pb.wtf



    28-08-2015 12:45 Зверинец Скачать торрент  

    Антонн писал(а):

    как сериал-интересный?

    Мне понравился) Иначе бы не стал с этим заморачиваться) pb.wtf



    29-08-2015 17:27 Зверинец Скачать торрент  

    Очень, даже, ни чего. Смотреть можно.pb.wtf



    30-08-2015 16:43 Зверинец Скачать торрент  

    Антонн писал(а):

    как сериал-интересный?

    Сериал достойный! )))pb.wtf



    10-09-2015 03:25 Зверинец Скачать торрент  

    Я дался или что у меня одного перевод отсутствует! (английская дорожка)
    Всё разобрался (беда была в том что в трансляции на TV звук был EN ,после установки K-Lite_Codec_Pack_1143_Mega.Звук на TV стал RU)pb.wtf
    !-=Pavlin=- писал(а):

    Пока устное предупреждение, выбирай выражения!



    28-10-2015 17:32 Зверинец Скачать торрент  

    Когда ждать 2 сезон?pb.wtf



      Дорогой пользователь! Огромная просьба, поблагодарите релизера, оцените раздачу и оставьте свои комментарий, если Вы скачали Зверинец через торрент бесплатно! Внесите свою лепту в развитие PiratBit!
      Комментировать посты могут только пользователи прошедшие не сложную регистрацию
      Показать сообщения:    

      Зверинец через торрент
      Скачать бесплатно Зверинец
      Зверинец скачать торрент
      Зверинец смотреть онлайн
      Cкачать фильм Зверинец бесплатно
      Зверинец скачать торрент в хорошем качестве
      Зверинец смотреть онлайн бесплатно в хорошем качестве


      Вы не можете начинать темы
      Вы не можете отвечать на сообщения
      Вы не можете редактировать свои сообщения
      Вы не можете удалять свои сообщения
      Вы не можете голосовать в опросах
      Вы не можете прикреплять файлы к сообщениям
      Вы можете скачивать файлы