2 сезон

iTunes

1 сезон

1

iTunes

iTunes

iTunes

1 сезон

RePack

30

ИГРА 18+

pack

ВАЖНО

!!Акция!!

Alien_RageХит недели

RePack

MK11
pack

Забери бонус

RePack

jed

!!Акция!!

Alien_Rage

RePack

fifa19

RePack

Assassins Creed: Odyssey

RePack

NEED FOR SPEED™ PAYBACK

4 сезон

9 сезон

Бесстыжие 9 сезон

Все сериалы

все сериалы на PB.wtf

RePack

FAR CRY 5
  

Авиатор / The Aviator (Мартин Скорсезе / Martin Scorsese) [2004, драма, биография, BDRip 720p от potroks] DUB, MVO, AVO pb.wtf

Авиатор через торрент pb.wtf

Размер: 8.92 GB | Добавлен: 5 лет 2 мес. назад | Торрент скачан:232 раза
Скачать  

29-08-2015 08:56 Авиатор Скачать торрент  

Авиатор / The Aviator
«Представьте себе жизнь без пределов»
Год выпуска: 2004
Страна: США, Германия / Warner Bros. Pictures, Miramax Films
Жанр: драма, биография
Продолжительность: 02:50:08
Перевод#1: Дубляж [R5]
Перевод#2: Профессиональный многоголосый [Tycoon-Studio]
Перевод#3: Авторский (одноголосый) [Ю.Немахов]
Субтитры: русские (R5), русские, английские (Full), английские (SDH)
Навигация по главам: есть
Режиссер: Мартин Скорсезе / Martin Scorsese
В ролях:

Леонардо ДиКаприо (Howard Hughes), Кейт Бланшетт (Katharine Hepburn), Мэтт Росс (Glenn Odekirk), Джон Си Райли (Noah Dietrich), Алан Алда (Senator Ralph Owen Brewster), Кейт Бекинсейл (Ava Gardner), Алек Болдуин (Juan Trippe), Иэн Холм (Professor Fitz), Адам Скотт (Johnny Meyer), Дэнни Хьюстон (Jack Frye), Гвен Стефани (Jean Harlow), Джуд Лоу (Errol Flynn)
Описание: Получив от отца небольшую фабрику, Говард Хьюз превратил ее в гигантское, фантастически прибыльное предприятие. Став владельцем огромной кинокомпании, он снял самый дорогой для своего времени фильм и покорил сердца прелестнейших голливудских актрис.
Ему принадлежали самые престижные казино Лас-Вегаса и он установил рекорд скоростных полетов, приобрел вторую по величине коммерческую авиакомпанию...
Деньги жгут сердце Хьюза, они не дают ему покоя, а душа его рвется ввысь. Только там, на высоте нескольких тысяч метров он счастлив по-настоящему. Только там, где все решает лишь мастерство пилота и Бог, ничто не ценится так дорого, как верность и честь.

Качество: BDRip 720p
Формат: MKV
Видео кодек: AVC
Аудио кодек: AC3, DTS
Видео: AVC, 1280x546 (2.35:1), 4817 kbps, 23,976 fps, 0,287 bit/pixel
Аудио №1: DTS / 5.1 / 48 kHz / 755 kbps / 24 bit | Dub - R5
Аудио №2: AC3 / 5.1 / 48 kHz / 640 kbps / 16 bit | MVO - Tycoon-Studio
Аудио №3: AC3 / 5.1 / 48 kHz / 640 kbps / 16 bit | AVO - Ю.Немахов
Аудио №4: AC3 / 5.1 / 48 kHz / 640 kbps / 16 bit | ENG
Релиз группы:
Автор рипа: potroks

Код:

Общее
Уникальный идентификатор : 251537723286640996267031912368392407749 (0xBD3C67416D15AC47A36072B171C48AC5)
Полное имя : Aviator.2004.DUB.MVO.AVO.ENG.BDRip.720p.-HELLYWOOD.mkv
Формат : Matroska
Версия формата : Version 4 / Version 2
Размер файла : 8,92 Гбайт
Продолжительность : 2 ч. 50 м.
Общий поток : 7507 Кбит/сек
Название фильма : The Aviator (2004) - HELLYWOOD
Дата кодирования : UTC 2015-08-28 23:47:06
Программа кодирования : mkvmerge v5.9.0 ('On The Loose') built on Dec 15 2012 16:39:58
Библиотека кодирования : libebml v1.3.0 + libmatroska v1.4.0

Видео
Идентификатор : 1
Формат : AVC
Формат/Информация : Advanced Video Codec
Профиль формата : High@L4.1
Параметр CABAC формата : Да
Параметр ReFrames формата : 9 кадров
Идентификатор кодека : V_MPEG4/ISO/AVC
Продолжительность : 2 ч. 50 м.
Битрейт : 4817 Кбит/сек
Ширина : 1280 пикселей
Высота : 546 пикселей
Соотношение сторон : 2,35:1
Режим частоты кадров : Постоянный
Частота кадров : 23,976 кадра/сек
Цветовое пространство : YUV
Субдискретизация насыщенности : 4:2:0
Битовая глубина : 8 бит
Тип развёртки : Прогрессивная
Бит/(Пиксели*Кадры) : 0.287
Размер потока : 5,55 Гбайт (62%)
Заголовок : potroks
Библиотека кодирования : x264 core 146 r2538 121396c
Настройки программы : cabac=1 / ref=9 / deblock=1:-3:-3 / analyse=0x3:0x113 / me=umh / subme=11 / psy=1 / psy_rd=0.98:0.00 / mixed_ref=1 / me_range=56 / chroma_me=1 / trellis=2 / 8x8dct=1 / cqm=0 / deadzone=21,11 / fast_pskip=0 / chroma_qp_offset=-2 / threads=9 / lookahead_threads=2 / sliced_threads=0 / nr=0 / decimate=0 / interlaced=0 / bluray_compat=0 / constrained_intra=0 / bframes=10 / b_pyramid=2 / b_adapt=2 / b_bias=0 / direct=3 / weightb=1 / open_gop=0 / weightp=2 / keyint=250 / keyint_min=23 / scenecut=40 / intra_refresh=0 / rc_lookahead=60 / rc=2pass / mbtree=0 / bitrate=4817 / ratetol=1.0 / qcomp=0.70 / qpmin=0 / qpmax=69 / qpstep=4 / cplxblur=20.0 / qblur=0.5 / vbv_maxrate=14000 / vbv_bufsize=14000 / nal_hrd=none / filler=0 / ip_ratio=1.35 / pb_ratio=1.30 / aq=1:0.80
Язык : English
Default : Да
Forced : Нет

Аудио #1
Идентификатор : 2
Формат : DTS
Формат/Информация : Digital Theater Systems
Режим : 16
Параметр Endianness формата : Big
Идентификатор кодека : A_DTS
Продолжительность : 2 ч. 50 м.
Вид битрейта : Постоянный
Битрейт : 768 Кбит/сек
Каналы : 6 каналов
Расположение каналов : Front: L C R, Side: L R, LFE
Частота : 48,0 КГц
Битовая глубина : 24 бит
Метод сжатия : С потерями
Размер потока : 935 Мбайт (10%)
Заголовок : Dub | DTS 5.1 @ 768 kbps - R5
Язык : Russian
Default : Да
Forced : Нет

Аудио #2
Идентификатор : 3
Формат : AC-3
Формат/Информация : Audio Coding 3
Расширение режима : CM (complete main)
Параметр Endianness формата : Big
Идентификатор кодека : A_AC3
Продолжительность : 2 ч. 50 м.
Вид битрейта : Постоянный
Битрейт : 640 Кбит/сек
Каналы : 6 каналов
Расположение каналов : Front: L C R, Side: L R, LFE
Частота : 48,0 КГц
Метод сжатия : С потерями
Размер потока : 779 Мбайт (9%)
Заголовок : MVO | DD 5.1 @ 640 kbps - Tycoon-Studio
Язык : Russian
Default : Нет
Forced : Нет

Аудио #3
Идентификатор : 4
Формат : AC-3
Формат/Информация : Audio Coding 3
Расширение режима : CM (complete main)
Параметр Endianness формата : Big
Идентификатор кодека : A_AC3
Продолжительность : 2 ч. 50 м.
Вид битрейта : Постоянный
Битрейт : 640 Кбит/сек
Каналы : 6 каналов
Расположение каналов : Front: L C R, Side: L R, LFE
Частота : 48,0 КГц
Метод сжатия : С потерями
Размер потока : 779 Мбайт (9%)
Заголовок : AVO | DD 5.1 @ 640 kbps - Y.Nemahov
Язык : Russian
Default : Нет
Forced : Нет

Аудио #4
Идентификатор : 5
Формат : AC-3
Формат/Информация : Audio Coding 3
Расширение режима : CM (complete main)
Параметр Endianness формата : Big
Идентификатор кодека : A_AC3
Продолжительность : 2 ч. 50 м.
Вид битрейта : Постоянный
Битрейт : 640 Кбит/сек
Каналы : 6 каналов
Расположение каналов : Front: L C R, Side: L R, LFE
Частота : 48,0 КГц
Метод сжатия : С потерями
Размер потока : 779 Мбайт (9%)
Заголовок : Original | DD 5.1 @ 640 kbps
Язык : English
Default : Нет
Forced : Нет

Текст #1
Идентификатор : 6
Формат : UTF-8
Идентификатор кодека : S_TEXT/UTF8
Идентификатор кодека/Информация : UTF-8 Plain Text
Заголовок : R5
Язык : Russian
Default : Нет
Forced : Нет

Текст #2
Идентификатор : 7
Формат : UTF-8
Идентификатор кодека : S_TEXT/UTF8
Идентификатор кодека/Информация : UTF-8 Plain Text
Язык : Russian
Default : Нет
Forced : Нет

Текст #3
Идентификатор : 8
Формат : UTF-8
Идентификатор кодека : S_TEXT/UTF8
Идентификатор кодека/Информация : UTF-8 Plain Text
Заголовок : Full
Язык : English
Default : Нет
Forced : Нет

Текст #4
Идентификатор : 9
Формат : UTF-8
Идентификатор кодека : S_TEXT/UTF8
Идентификатор кодека/Информация : UTF-8 Plain Text
Заголовок : SDH
Язык : English
Default : Нет
Forced : Нет

Меню
00:00:00.000 : en:(01)00:00:00:000
00:02:19.514 : en:(02)00:02:19:514
00:10:35.926 : en:(03)00:10:35:926
00:17:34.052 : en:(04)00:17:34:052
00:21:38.380 : en:(05)00:21:38:380
00:26:43.602 : en:(06)00:26:43:602
00:30:21.861 : en:(07)00:30:21:861
00:32:40.333 : en:(08)00:32:40:333
00:37:11.812 : en:(09)00:37:11:812
00:42:07.525 : en:(10)00:42:07:525
00:47:28.762 : en:(11)00:47:28:762
00:52:42.033 : en:(12)00:52:42:033
00:54:13.917 : en:(13)00:54:13:917
00:57:57.682 : en:(14)00:57:57:682
01:03:28.638 : en:(15)01:03:28:638
01:08:11.921 : en:(16)01:08:11:921
01:09:19.113 : en:(17)01:09:19:113
01:12:37.811 : en:(18)01:12:37:811
01:15:58.220 : en:(19)01:15:58:220
01:21:13.618 : en:(20)01:21:13:618
01:29:43.377 : en:(21)01:29:43:377
01:32:45.725 : en:(22)01:32:45:725
01:35:43.779 : en:(23)01:35:43:779
01:41:16.487 : en:(24)01:41:16:487
01:47:44.207 : en:(25)01:47:44:207
01:52:08.680 : en:(26)01:52:08:680
02:03:19.391 : en:(27)02:03:19:391
02:17:20.607 : en:(28)02:17:20:607
02:21:54.714 : en:(29)02:21:54:714
02:29:49.980 : en:(30)02:29:49:980
02:39:32.396 : en:(31)02:39:32:396
02:43:35.806 : en:(32)02:43:35:806
02:50:08.990 : en:(33)02:50:08:990

pb.wtf



Скачать Авиатор через торрент http://i66.fastpic.ru/big/2015/0829/4a/58614dc4573e074153b22bfa5b19474a.png Скачать фильм Авиатор через торрент бесплантно в хорошем качестве Описание: Получив от отца небольшую фабрику, Говард Хьюз превратил ее в гигантское, фантастически прибыльное предприятие. Став владельцем ... 10 10 7
Info! Золотая раздача, скачанное не засчитывается.
Торрент: Зарегистрирован [2015-08-29 08:56] · скачан: 232 раз
Статус: √ проверено
Размер: 8.92 GB
Как cкачать? Как скачать Авиатор через торрент | qTorrent

28-11-2019 20:33  

Отключить всю рекламу на сайте

29-08-2015 10:49 Авиатор Скачать торрент  

Мега-крутой фильм. Вторая работа пожалуй лучшего тандема актёр-режиссёр нашего времени.
Спасибо potroks за релиз.pb.wtf



    Дорогой пользователь! Огромная просьба, поблагодарите релизера, оцените раздачу и оставьте свои комментарий, если Вы скачали Авиатор через торрент бесплатно! Внесите свою лепту в развитие PiratBit!
    Комментировать посты могут только пользователи прошедшие не сложную регистрацию
    Показать сообщения:    

    Авиатор через торрент
    Скачать бесплатно Авиатор
    Авиатор скачать торрент
    Авиатор смотреть онлайн
    Cкачать фильм Авиатор бесплатно
    Авиатор скачать торрент в хорошем качестве
    Авиатор смотреть онлайн бесплатно в хорошем качестве


    Вы не можете начинать темы
    Вы не можете отвечать на сообщения
    Вы не можете редактировать свои сообщения
    Вы не можете удалять свои сообщения
    Вы не можете голосовать в опросах
    Вы не можете прикреплять файлы к сообщениям
    Вы можете скачивать файлы