новый адрес
Ссылка на приватное зеркало всего за 1$. Внимание количество ограничено!!!

iTunes

1+1

iTunes

мы

iTunes

1

iTunes

Чернобыль

iTunes

Ральф против интернета

Лицензия

ПШазам

Лицензия

Оно 2

Лицензия

30
pack

Вам бонус

ВАЖНО

!!Акция!!

Alien_RageХит недели

RePack

Resident Evil 21

ИГРА 18+

pack

RePack

jed

!!Акция!!

Alien_Rage

RePack

fifa19

RePack

Assassins Creed: Odyssey

RePack

NEED FOR SPEED™ PAYBACK

3 сезон

9 сезон

Бесстыжие 9 сезон

Все сериалы

все сериалы на PB.wtf

RePack

FAR CRY 5
Ребята, катастрофически не хватает 1900р. для оплаты серверов за Октябрь (всвязи с блокировками трафик упал в 3 раза), 1-2р., выручайте.
  

Случайная встреча (Игорь Савченко) [1936, мелодрама, комедия, DVDRip от AVP Studio] pb.wtf

Случайная встреча через торрент pb.wtf

Размер: 1.09 GB | Добавлен: 4 года 2 мес. назад | Торрент скачан:10 раз
Скачать  

30-08-2015 09:06 Случайная встреча Скачать торрент  

Случайная встреча
Страна: СССР
Производство: Межрабпомфильм

Жанр: мелодрама, комедия
Год выпуска: 1936
Продолжительность: 01:02:24

Перевод: Не требуется
Cубтитры: нет
Оригинальная аудиодорожка: русский

Режиссер: Игорь Савченко

В ролях:
Галина Пашкова, Евгений Самойлов, Пётр Савин, Иван Лобызовский, Константин Нассонов, Сергей Никонов, Валентина Ивашёва, Николай Вильдгрубе...
Полный список актёров

Описание:
На комбинат детских игрушек, где работает ударница производства Ирина, приезжает новый инструктор физкультуры Гриша (Евгений Самойлов). Обнаружив у девушки выдающиеся способности спортсменки, он начинает готовить ее к всесоюзным соревнованиям в Москве. Их дружба переходит в любовь и очень скоро завершается браком. Сообщение Ирины о том, что у них будет ребенок, муж встречает бурей негодования: вся их совместная работа оказывается бессмысленной. Ирина уходит от мужа и решает воспитывать ребенка одна. Коллектив комбината с сочувствием относится к молодой матери, помогает ей перенести душевную травму и всячески способствует ей в занятиях спортом. На всесоюзных соревнованиях в Москве Ирина занимает первое место.

Источник: DVD5 R5
Качество видео: DVDRip
Формат видео: AVI
Видео кодек: XviD
Аудио кодек: AC3
Видео: 688x512 (4:3), 25 fps, XviD ~ 2291 kbps avg, 0.260 bit/pixel
Аудио: 48 kHz, Dolby Digital AC3 2.0, 192 kbps

Раздача от:
Общее
Полное имя : Sluchaynaya.vstrecha.1936.DVDRip_[New-team]_by_AVP_Studio.avi
Формат : AVI
Формат/Информация : Audio Video Interleave
Размер файла : 1,09 Гбайт
Продолжительность : 1 ч. 2 м.
Общий поток : 2493 Кбит/сек
Программа кодирования : VirtualDubMod 1.5.10.3 | www.virtualdub-fr.org || (build 2550/release)
Библиотека кодирования : VirtualDubMod build 2550/release

Видео
Идентификатор : 0
Формат : MPEG-4 Visual
Профиль формата : Advanced Simple@L5
Параметр BVOP формата : 1
Параметр QPel формата : Нет
Параметр GMC формата : Без точки перехода
Параметр матрицы формата : Выборочная
Идентификатор кодека : XVID
Идентификатор кодека/Подсказка : XviD
Продолжительность : 1 ч. 2 м.
Битрейт : 2291 Кбит/сек
Ширина : 688 пикселей
Высота : 512 пикселей
Соотношение сторон : 4:3
Частота кадров : 25,000 кадров/сек
Цветовое пространство : YUV
Субдискретизация насыщенности : 4:2:0
Битовая глубина : 8 бит
Тип развёртки : Прогрессивная
Метод сжатия : С потерями
Бит/(Пиксели*Кадры) : 0.260
Размер потока : 1023 Мбайт (92%)
Библиотека кодирования : XviD 73

Аудио
Идентификатор : 1
Формат : AC-3
Формат/Информация : Audio Coding 3
Расширение режима : CM (complete main)
Параметр Endianness формата : Big
Идентификатор кодека : 2000
Продолжительность : 1 ч. 2 м.
Вид битрейта : Постоянный
Битрейт : 192 Кбит/сек
Каналы : 2 канала
Расположение каналов : Front: L R
Частота : 48,0 КГц
Метод сжатия : С потерями
Размер потока : 85,7 Мбайт (8%)
Выравнивание : Разделение по промежуткам
Продолжительность промежутка : 40 мс. (1,00 видеокадр)
Время предзагрузки промежутка : 500 мс
pb.wtf



Скачать Случайная встреча через торрент http://s020.radikal.ru/i717/1508/66/7e1d86501f75.png Скачать фильм Случайная встреча через торрент бесплантно в хорошем качестве Описание:На комбинат детских игрушек, где работает ударница производства Ирина, приезжает новый инструктор физкультуры Гриша (Евгений ... 10 10 1
Info! Золотая раздача, скачанное не засчитывается.
Торрент: Зарегистрирован [2015-08-30 09:06] · скачан: 10 раз
Статус: √ проверено
Размер: 1.09 GB
Как cкачать? Как скачать Случайная встреча через торрент | qTorrent

% Раздел Тема Автор DL S | L
Наши сериалы [ 4.35 GB ] Неслучайная встреча / Серии: 1-8 из 8 [2014 WEBRip] bober100 Скачать
1 | 0
Кино СССР [ 744 MB ] Случайная встреча [1936 DVDRip-AVC от AVP Studio] AVP Studio Скачать
1 | 0
Кино СССР [ 742 MB ] Случайная встреча [1936 DVDRip от AVP Studio] AVP Studio Скачать
1 | 0
Наши сериалы [ 4.61 GB ] Неслучайная встреча / Марсель / Серии: 1-8 из 8 [2014 IPTVRip] lug30 Скачать
1 | 0
    Дорогой пользователь! Огромная просьба, поблагодарите релизера, оцените раздачу и оставьте свои комментарий, если Вы скачали Случайная встреча через торрент бесплатно! Внесите свою лепту в развитие PiratBit!
    Комментировать посты могут только пользователи прошедшие не сложную регистрацию
    Показать сообщения:    

    Случайная встреча через торрент
    Скачать бесплатно Случайная встреча
    Случайная встреча скачать торрент
    Случайная встреча смотреть онлайн
    Cкачать фильм Случайная встреча бесплатно
    Случайная встреча скачать торрент в хорошем качестве
    Случайная встреча смотреть онлайн бесплатно в хорошем качестве


    Вы не можете начинать темы
    Вы не можете отвечать на сообщения
    Вы не можете редактировать свои сообщения
    Вы не можете удалять свои сообщения
    Вы не можете голосовать в опросах
    Вы не можете прикреплять файлы к сообщениям
    Вы можете скачивать файлы