Ссылка на приватное зеркало нашего сайта всего за 1$. Внимание количество ограничено!!!

2 сезон

iTunes

1 сезон

1

2 сезон

2 сезон

iTunes

1 сезон

RePack

30

Ultimate

ВАЖНО

ИГРА 18+

pack

RePack

MK11
pack

Забери бонус

RePack

jed

!!Акция!!

Alien_Rage

RePack

fifa19

RePack

Assassins Creed: Odyssey

RePack

NEED FOR SPEED™ PAYBACK

4 сезон

9 сезон

Бесстыжие 9 сезон

Все сериалы

все сериалы на PB.wtf

RePack

FAR CRY 5
  

Кокон / Pod (Мики Китинг) [2015, ужасы, триллер, детектив, WEB-DLRip, Любительский (одноголосый) [Xixidok] от ExKinoRay pb.wtf

Кокон через торрент pb.wtf

Размер: 1.37 GB | Добавлен: 5 лет 3 мес. назад | Торрент скачан:125 раз
Скачать  

30-08-2015 17:15 Кокон Скачать торрент  


Кокон / Pod


ИНФОРМАЦИЯ:
Год выпуска:2015
Страна: США
Жанр: ужасы, триллер, детектив
Продолжительность: 01:18:14
Перевод: Любительский (одноголосый) [Xixidok]
Режиссер: Мики Китинг

В Ролях:


Ларри Фесенден (Smith), Лорен Эшли Картер (Lyla), Джон Уэселкауч (John Boy), Дин Кэйтс (Ed), Брайан Морвант (Martin), Форрест МакКейн (The Pod)

Описание:
Эд получает странное сообщение от своего брата Мартина, страдающего шизофренией после службы в армии и проходящего курс реабилитации в уединенном домике у озера. Захватив с собой непутевую сестру, он отправляется к Мартину, чтоб узнать правду.

  • Мировая премьера:16 марта 2015

    ТЕХ.ДАННЫЕ:
    Качество: WEB-DLRip
    Формат: AVI
    Видео кодек: XviD
    Аудио кодек: AC3
    Видео: XviD, 720x304 (2.35:1), 1827 kbps, 23,976 fps, 0,348 bpp
    Аудио №1: AC3 / 2.0 / 44 kHz / 192 kbps / Русский
    Аудио №2: AC3 / 5.1 / 48 kHz / 384 kbps / английский


    Код:

    General
    Complete name                            : D:\Торенты\Pod.2015.xixidok.WEB-DLRip.1400.ExKinoRay.avi
    Format                                   : AVI
    Format/Info                              : Audio Video Interleave
    File size                                : 1.37 GiB
    Duration                                 : 1h 18mn
    Overall bit rate                         : 2 514 Kbps
    Writing application                      : VirtualDubMod 1.5.10.2 (build 2540/release)
    Writing library                          : VirtualDubMod build 2540/release
    Copyright                                : ExKinoRay

    Video
    ID                                       : 0
    Format                                   : MPEG-4 Visual
    Format profile                           : Advanced Simple@L5
    Format settings, BVOP                    : 1
    Format settings, QPel                    : No
    Format settings, GMC                     : No warppoints
    Format settings, Matrix                  : Custom
    Codec ID                                 : XVID
    Codec ID/Hint                            : XviD
    Duration                                 : 1h 18mn
    Bit rate                                 : 1 827 Kbps
    Width                                    : 720 pixels
    Height                                   : 304 pixels
    Display aspect ratio                     : 2.35:1
    Frame rate                               : 23.976 fps
    Color space                              : YUV
    Chroma subsampling                       : 4:2:0
    Bit depth                                : 8 bits
    Scan type                                : Progressive
    Compression mode                         : Lossy
    Bits/(Pixel*Frame)                       : 0.348
    Stream size                              : 1 023 MiB (73%)
    Writing library                          : XviD 73

    Audio #1
    ID                                       : 1
    Format                                   : AC-3
    Format/Info                              : Audio Coding 3
    Mode extension                           : CM (complete main)
    Codec ID                                 : 2000
    Duration                                 : 1h 18mn
    Bit rate mode                            : Constant
    Bit rate                                 : 192 Kbps
    Channel(s)                               : 2 channels
    Channel positions                        : Front: L R
    Sampling rate                            : 44.1 KHz
    Bit depth                                : 16 bits
    Compression mode                         : Lossy
    Stream size                              : 107 MiB (8%)
    Alignment                                : Split accross interleaves
    Title                                    : xixidok

    Audio #2
    ID                                       : 2
    Format                                   : AC-3
    Format/Info                              : Audio Coding 3
    Mode extension                           : CM (complete main)
    Codec ID                                 : 2000
    Duration                                 : 1h 18mn
    Bit rate mode                            : Constant
    Bit rate                                 : 384 Kbps
    Channel(s)                               : 6 channels
    Channel positions                        : Front: L C R, Side: L R, LFE
    Sampling rate                            : 48.0 KHz
    Bit depth                                : 16 bits
    Compression mode                         : Lossy
    Stream size                              : 215 MiB (15%)
    Alignment                                : Split accross interleaves

    Скриншоты:


    © Оформление by Ворон
    pb.wtf



  • Скачать Кокон через торрент http://pic.kartinco.top/images/6/ordi9.jpg Скачать фильм Кокон через торрент бесплантно в хорошем качестве Описание: Эд получает странное сообщение от своего брата Мартина, страдающего шизофренией после службы в армии и проходящего курс ... 8.9 10 8
    Торрент: Зарегистрирован [2015-08-30 17:15] · скачан: 125 раз
    Статус: T временная
    Размер: 1.37 GB
    Как cкачать? Как скачать Кокон через торрент | qTorrent

    28-11-2019 20:33  

    Отключить всю рекламу на сайте

    02-09-2015 03:51 Кокон Скачать торрент  

    }{ерь.....pb.wtf



    07-09-2015 18:06 Кокон Скачать торрент  

    ыыыыы глянул на фото думал джек николсон)))))))))похож заразаpb.wtf



    23-09-2015 09:39 Кокон Скачать торрент  

    согласен!!))))))))

    igorbair писал(а):

    ыыыыы глянул на фото думал джек николсон)))))))))похож зараза

    pb.wtf



      Дорогой пользователь! Огромная просьба, поблагодарите релизера, оцените раздачу и оставьте свои комментарий, если Вы скачали Кокон через торрент бесплатно! Внесите свою лепту в развитие PiratBit!
      Комментировать посты могут только пользователи прошедшие не сложную регистрацию
      Показать сообщения:    

      Кокон через торрент
      Скачать бесплатно Кокон
      Кокон скачать торрент
      Кокон смотреть онлайн
      Cкачать фильм Кокон бесплатно
      Кокон скачать торрент в хорошем качестве
      Кокон смотреть онлайн бесплатно в хорошем качестве


      Вы не можете начинать темы
      Вы не можете отвечать на сообщения
      Вы не можете редактировать свои сообщения
      Вы не можете удалять свои сообщения
      Вы не можете голосовать в опросах
      Вы не можете прикреплять файлы к сообщениям
      Вы можете скачивать файлы