Ссылка на приватное зеркало всего за 1$. Внимание количество ограничено!!!

OK

1+1

iTunes

мы

OK

1

WEB-DLRip

Джокер

Пифагор

Ведьмак / The Witcher сериал

iTunes

ПШазам

ОК

Оно 2

iTunes

30
pack

Вам бонус

ВАЖНО

!!Акция!!

Alien_RageХит недели

RePack

Resident Evil 21

ИГРА 18+

pack

RePack

jed

RePack

fifa19

RePack

Assassins Creed: Odyssey

RePack

NEED FOR SPEED™ PAYBACK

4 сезон

9 сезон

Бесстыжие 9 сезон

Все сериалы

все сериалы на PB.wtf

RePack

FAR CRY 5
  

Загнанные лошади / Broken Horses (Видху Винод Чопра) [2015, триллер, драма, криминал, WEB-DLRip, Профессиональный многоголосый [Лицензия][iTunes] pb.wtf

Загнанные лошади через торрент pb.wtf

Размер: 1.46 GB | Добавлен: 4 года 4 мес. назад | Торрент скачан:581 раз
Скачать  

30-08-2015 19:42 Загнанные лошади Скачать торрент  


Загнанные лошади / Broken Horses
««A Tale of Brothers, A Trail of Blood»»

ИНФОРМАЦИЯ:
Год выпуска:2015
Страна: США
Жанр: триллер, драма, криминал, детектив
Продолжительность: 01:40:37
Перевод: Профессиональный многоголосый [Лицензия][iTunes]
Режиссер: Видху Винод Чопра

В Ролях:


Антон Ельчин (Jacob Heckum), Крис Маркетт (Buddy Heckum), Винсент Д’Онофрио (Julius Hench), Мария Вальверде (Vittoria), Томас Джейн (Gabriel Heckum), Шон Патрик Флэнери (Ignacio), Фрэнк М. Эхерн (Sly), Сэди Александру (Santion's Wife), Scott Aschenbrenner (Assassin), Чэд Грибель (Henchman #1), Хорди Кабальеро (Mario Vargos Garza), Дэвид Кастро (Garzas Henchman)

Описание:
Братские узы, лояльные законы и тщетное насилие на фоне войны банд на американо-мексиканской границе.

  • Мировая премьера:9 апреля 2015

    ТЕХ.ДАННЫЕ:
    Качество: WEB-DLRip
    Формат: AVI
    Видео кодек: XviD
    Аудио кодек: AC3
    Видео: XviD, 720x304 (2.35:1), 1680 kbps, 23,976 fps, 0,320 bpp
    Аудио: AC3 / 5.1 / 48 kHz / 384 kbps / 16 bit


    General
    Complete name : D:\Торенты\3agHaHHYe.L0shad1.2015.P.WEB-DLRip.1.46Gb.avi
    Format : AVI
    Format/Info : Audio Video Interleave
    File size : 1.46 GiB
    Duration : 1h 40mn
    Overall bit rate : 2 074 Kbps
    Writing application : VirtualDubMod 1.5.10.3 | www.virtualdub-fr.org || (build 2550/release)
    Writing library : VirtualDubMod build 2550/release

    Video
    ID : 0
    Format : MPEG-4 Visual
    Format profile : Advanced Simple@L5
    Format settings, BVOP : 2
    Format settings, QPel : No
    Format settings, GMC : No warppoints
    Format settings, Matrix : Default (MPEG)
    Codec ID : XVID
    Codec ID/Hint : XviD
    Duration : 1h 40mn
    Bit rate : 1 681 Kbps
    Width : 720 pixels
    Height : 304 pixels
    Display aspect ratio : 2.35:1
    Frame rate : 23.976 fps
    Color space : YUV
    Chroma subsampling : 4:2:0
    Bit depth : 8 bits
    Scan type : Progressive
    Compression mode : Lossy
    Bits/(Pixel*Frame) : 0.320
    Stream size : 1.18 GiB (81%)
    Writing library : XviD 1.2.1 (UTC 2008-12-04)

    Audio
    ID : 1
    Format : AC-3
    Format/Info : Audio Coding 3
    Mode extension : CM (complete main)
    Codec ID : 2000
    Duration : 1h 40mn
    Bit rate mode : Constant
    Bit rate : 384 Kbps
    Channel(s) : 6 channels
    Channel positions : Front: L C R, Side: L R, LFE
    Sampling rate : 48.0 KHz
    Bit depth : 16 bits
    Compression mode : Lossy
    Stream size : 276 MiB (19%)
    Alignment : Split accross interleaves
    Interleave, duration : 42 ms (1.00 video frame)
    Interleave, preload duration : 500 ms
    Скриншоты:


    © Оформление by Ворон
    pb.wtf



  • Скачать Загнанные лошади через торрент http://pic.kartinco.top/images/6/ordi9.jpg Скачать фильм Загнанные лошади через торрент бесплантно в хорошем качестве Описание: Братские узы, лояльные законы и тщетное насилие на фоне войны банд на американо-мексиканской границе. Мировая премьера:9 апреля ... 9.3 10 27
    Info! Золотая раздача, скачанное не засчитывается.
    Торрент: Зарегистрирован [2015-08-30 19:42] · скачан: 581 раз
    Статус: √ проверено
    Размер: 1.46 GB
    Как cкачать? Как скачать Загнанные лошади через торрент | qTorrent

    % Раздел Тема Автор DL S | L
    Фильмы (WEB-DL 720p, 1080p) [ 3.62 GB ] Загнанные лошади / Broken Horses [2015 WEB-DL 1080p многоголосый [] Ворон Скачать
    1 | 0

    28-11-2019 20:33  

    Отключить всю рекламу на сайте

      Дорогой пользователь! Огромная просьба, поблагодарите релизера, оцените раздачу и оставьте свои комментарий, если Вы скачали Загнанные лошади через торрент бесплатно! Внесите свою лепту в развитие PiratBit!
      Комментировать посты могут только пользователи прошедшие не сложную регистрацию
      Показать сообщения:    

      Загнанные лошади через торрент
      Скачать бесплатно Загнанные лошади
      Загнанные лошади скачать торрент
      Загнанные лошади смотреть онлайн
      Cкачать фильм Загнанные лошади бесплатно
      Загнанные лошади скачать торрент в хорошем качестве
      Загнанные лошади смотреть онлайн бесплатно в хорошем качестве


      Вы не можете начинать темы
      Вы не можете отвечать на сообщения
      Вы не можете редактировать свои сообщения
      Вы не можете удалять свои сообщения
      Вы не можете голосовать в опросах
      Вы не можете прикреплять файлы к сообщениям
      Вы можете скачивать файлы