Ссылка на приватное зеркало нашего сайта всего за 1$. Внимание количество ограничено!!!

2 сезон

iTunes

1 сезон

1

iTunes

iTunes

iTunes

1 сезон

RePack

30

ИГРА 18+

pack

ВАЖНО

!!Акция!!

Alien_RageХит недели

RePack

MK11
pack

Забери бонус

RePack

jed

!!Акция!!

Alien_Rage

RePack

fifa19

RePack

Assassins Creed: Odyssey

RePack

NEED FOR SPEED™ PAYBACK

4 сезон

9 сезон

Бесстыжие 9 сезон

Все сериалы

все сериалы на PB.wtf

RePack

FAR CRY 5
  

Дивергент, глава 2: Инсургент / Insurgent (Роберт Швентке) [2015, фантастика, триллер, приключения, BDRip 1080p] DUB Лицензия pb.wtf

Дивергент, глава 2: Инсургент через торрент pb.wtf

Размер: 12.85 GB | Добавлен: 5 лет 1 мес. назад | Торрент скачан:576 раз
Скачать  

31-08-2015 12:23 Дивергент, глава 2: Инсургент Скачать торрент  


Дивергент, глава 2: Инсургент / Insurgent
««В этом мире пора что-то менять»»

ИНФОРМАЦИЯ:
Год выпуска:2015
Страна: США
Жанр: фантастика, триллер, приключения
Продолжительность: 01:59:00
Перевод: Дубляж - [Лицензия]
Субтитры: русские, английские, английские (SDH),
Режиссер: Роберт Швентке

В Ролях:


Шейлин Вудли (Tris), Тео Джеймс (Four), Кейт Уинслет (Jeanine), Джай Кортни (Eric), Энсел Элгорт (Caleb), Майлз Теллер (Peter), Зои Кравиц (Christina), Мекхай Файфер (Max), Наоми Уоттс (Evelyn), Октавия Спенсер (Johanna), Рэй Стивенсон (Marcus), Тони Голдуин (Andrew)

Описание:
В новой главе антиутопии об обществе, где все расставлено по полочкам, а любая индивидуальность подлежит искоренению, Трис должна найти способ борьбы со страшной системой, уничтожающей ее близких. Кто из них на очереди? Она узнает все больше страшных подробностей, стоящих за кажущимся порядком, и уже не может не видеть, что в ее мире пора что-то менять. Но главное в этой борьбе - справиться с расколом, который враг порождает в ее собственной душе.

  • Мировая премьера:11 марта 2015

    ТЕХ.ДАННЫЕ:
    Качество: BDRip 1080p
    Формат: MKV
    Видео кодек: AVC
    Аудио кодек: DTS
    Видео: AVC, 1920x800 (2.40:1), 12437 kbps, 23,976 fps, 0,338 bpp
    Аудио №1: русский / DTS / 5.1 / 48 kHz / 1510 kbps / 24 bit ||
    Аудио №2: английский / DTS / 5.1 / 48 kHz / 1510 kbps / 24 bit
    Навигация по главам: есть


    General
    Unique ID : 228509868759088014937820026467221031103 (0xABE9665EBD5A62DB966A8BC236E4C8BF)
    Complete name : D:\Торенты\Кино\Инсургент.1080p. Ton.mkv
    Format : Matroska
    Format version : Version 4 / Version 2
    File size : 12.9 GiB
    Duration : 1h 59mn
    Overall bit rate : 15.5 Mbps
    Movie name : Дивергент, глава 2: Инсургент. (Tonik)
    Encoded date : UTC 2015-08-14 14:30:33
    Writing application : mkvmerge v7.1.0 ('Good Love') 64bit built on Jul 27 2014 13:06:55
    Writing library : libebml v1.3.0 + libmatroska v1.4.1
    _STATISTICS_WRITING_APP : mkvmerge v7.1.0 ('Good Love') 64bit built on Jul 27 2014 13:06:55
    _STATISTICS_WRITING_DATE_UTC : 2015-08-14 14:30:33
    _STATISTICS_TAGS : BPS DURATION NUMBER_OF_FRAMES NUMBER_OF_BYTES
    DURATION : 01:59:00.416000000
    NUMBER_OF_FRAMES : 669414
    NUMBER_OF_BYTES : 1346861888

    Video
    ID : 1
    Format : AVC
    Format/Info : Advanced Video Codec
    Format profile : High@L4.1
    Format settings, CABAC : Yes
    Format settings, ReFrames : 5 frames
    Codec ID : V_MPEG4/ISO/AVC
    Duration : 1h 59mn
    Bit rate : 12.4 Mbps
    Width : 1 920 pixels
    Height : 800 pixels
    Display aspect ratio : 2.40:1
    Frame rate : 23.976 fps
    Color space : YUV
    Chroma subsampling : 4:2:0
    Bit depth : 8 bits
    Scan type : Progressive
    Bits/(Pixel*Frame) : 0.338
    Stream size : 10.1 GiB (78%)
    Writing library : x264 core 146 r2538 121396c
    Encoding settings : cabac=1 / ref=5 / deblock=1:-3:-3 / analyse=0x3:0x113 / me=umh / subme=10 / psy=1 / psy_rd=1.05:0.05 / mixed_ref=1 / me_range=48 / chroma_me=1 / trellis=2 / 8x8dct=1 / cqm=0 / deadzone=21,11 / fast_pskip=1 / chroma_qp_offset=-3 / threads=12 / lookahead_threads=2 / sliced_threads=0 / nr=0 / decimate=1 / interlaced=0 / bluray_compat=0 / constrained_intra=0 / bframes=7 / b_pyramid=2 / b_adapt=2 / b_bias=0 / direct=1 / weightb=1 / open_gop=0 / weightp=2 / keyint=240 / keyint_min=23 / scenecut=40 / intra_refresh=0 / rc_lookahead=125 / rc=2pass / mbtree=1 / bitrate=12437 / ratetol=1.0 / qcomp=0.60 / qpmin=0 / qpmax=69 / qpstep=4 / cplxblur=20.0 / qblur=0.5 / vbv_maxrate=30000 / vbv_bufsize=38000 / nal_hrd=none / filler=0 / ip_ratio=1.40 / aq=3:0.80
    Language : English
    Default : Yes
    Forced : No
    _STATISTICS_WRITING_APP : mkvmerge v7.1.0 ('Good Love') 64bit built on Jul 27 2014 13:06:55
    _STATISTICS_WRITING_DATE_UTC : 2015-08-14 14:30:33
    _STATISTICS_TAGS : BPS DURATION NUMBER_OF_FRAMES NUMBER_OF_BYTES
    DURATION : 01:59:00.384000000
    NUMBER_OF_FRAMES : 171198
    NUMBER_OF_BYTES : 11103668785
    Color primaries : BT.709-5, BT.1361, IEC 61966-2-4, SMPTE RP177
    Transfer characteristics : BT.709-5, BT.1361
    Matrix coefficients : BT.709-5, BT.1361, IEC 61966-2-4 709, SMPTE RP177

    Audio #1
    ID : 2
    Format : DTS
    Format/Info : Digital Theater Systems
    Codec ID : A_DTS
    Duration : 1h 59mn
    Bit rate mode : Constant
    Bit rate : 1 510 Kbps
    Channel(s) : 6 channels
    Channel positions : Front: L C R, Side: L R, LFE
    Sampling rate : 48.0 KHz
    Bit depth : 24 bits
    Compression mode : Lossy
    Stream size : 1.25 GiB (10%)
    Language : Russian
    Default : Yes
    Forced : No

    Audio #2
    ID : 3
    Format : DTS
    Format/Info : Digital Theater Systems
    Codec ID : A_DTS
    Duration : 1h 59mn
    Bit rate mode : Constant
    Bit rate : 1 510 Kbps
    Channel(s) : 6 channels
    Channel positions : Front: L C R, Side: L R, LFE
    Sampling rate : 48.0 KHz
    Bit depth : 24 bits
    Compression mode : Lossy
    Stream size : 1.25 GiB (10%)
    Language : English
    Default : No
    Forced : No

    Text #1
    ID : 4
    Format : UTF-8
    Codec ID : S_TEXT/UTF8
    Codec ID/Info : UTF-8 Plain Text
    Language : Russian
    Default : No
    Forced : No

    Text #2
    ID : 5
    Format : UTF-8
    Codec ID : S_TEXT/UTF8
    Codec ID/Info : UTF-8 Plain Text
    Language : English
    Default : No
    Forced : No

    Text #3
    ID : 6
    Format : UTF-8
    Codec ID : S_TEXT/UTF8
    Codec ID/Info : UTF-8 Plain Text
    Title : SDH
    Language : English
    Default : No
    Forced : No

    Menu
    00:00:00.000 : en:00:00:00.000
    00:06:11.288 : en:00:06:11.288
    00:13:35.398 : en:00:13:35.398
    00:19:35.007 : en:00:19:35.007
    00:26:39.431 : en:00:26:39.431
    00:34:23.061 : en:00:34:23.061
    00:41:13.846 : en:00:41:13.846
    00:46:34.708 : en:00:46:34.708
    00:53:10.103 : en:00:53:10.103
    00:59:30.358 : en:00:59:30.358
    01:05:59.664 : en:01:05:59.664
    01:13:34.910 : en:01:13:34.910
    01:22:57.931 : en:01:22:57.931
    01:32:04.936 : en:01:32:04.936
    01:39:09.360 : en:01:39:09.360
    01:46:38.642 : en:01:46:38.642
    Скриншоты:


    © Оформление by Ворон
    pb.wtf



  • Скачать Дивергент, глава 2: Инсургент через торрент http://pic.kartinco.top/images/6/ordi9.jpg Скачать фильм Дивергент, глава 2: Инсургент через торрент бесплантно в хорошем качестве Описание: В новой главе антиутопии об обществе, где все расставлено по полочкам, а любая индивидуальность подлежит искоренению, Трис должна ... 9.4 10 14
    Info! Золотая раздача, скачанное не засчитывается.
    Торрент: Зарегистрирован [2015-08-31 12:23] · скачан: 576 раз
    Статус: √ проверено
    Размер: 12.85 GB
    Как cкачать? Как скачать Дивергент, глава 2: Инсургент через торрент | qTorrent

    % Раздел Тема Автор DL S | L
    Ultra HD (UHD: 2K, 4K, 8K) — видео сверхвысокой чёткости [ 54.74 GB ] Дивергент глава 2: Инсургент / Insurgent [2015 UHD BDRemux 2160p] DUB [] bober100 Скачать
    1 | 0
    3D Фильмы [ 40.9 GB ] Дивергент глава 2: Инсургент / Insurgent [2015 Blu-Ray 1080p] [3D/2D] [] killermax2013 Скачать
    1 | 0
    Фильмы 2015 [DVDrip, WEB-DLRip, HDrip] [ 745 MB ] Дивергент глава 2: Инсургент / Insurgent [2015 BDRip-AVC от sokol_ok] DUB sokol_ok Скачать
    2 | 0
    Фильмы 2015 [DVDrip, WEB-DLRip, HDrip] [ 2.18 GB ] Дивергент глава 2: Инсургент / Insurgent [2015 BDRip-AVC от sokol_ok] DUB sokol_ok Скачать
    2 | 0
    Фильмы 2015 [DVDrip, WEB-DLRip, HDrip] [ 2.19 GB ] Дивергент глава 2: Инсургент / Insurgent [2015 BDRip-AVC] DUB potroks Скачать
    1 | 0
    Фильмы 2015 [DVDrip, WEB-DLRip, HDrip] [ 1.46 GB ] Дивергент глава 2: Инсургент / Insurgent [2015 BDRip-AVC] DUB potroks Скачать
    1 | 0
    Фильмы [HD 720p, 1080p] (Хороший звук DUB, MVO) [ 4.36 GB ] Дивергент глава 2: Инсургент / Insurgent [2015 BDRip 720p] DUB potroks Скачать
    1 | 0

    28-11-2019 20:33  

    Отключить всю рекламу на сайте

      Дорогой пользователь! Огромная просьба, поблагодарите релизера, оцените раздачу и оставьте свои комментарий, если Вы скачали Дивергент, глава 2: Инсургент через торрент бесплатно! Внесите свою лепту в развитие PiratBit!
      Комментировать посты могут только пользователи прошедшие не сложную регистрацию
      Показать сообщения:    

      Дивергент, глава 2: Инсургент через торрент
      Скачать бесплатно Дивергент, глава 2: Инсургент
      Дивергент, глава 2: Инсургент скачать торрент
      Дивергент, глава 2: Инсургент смотреть онлайн
      Cкачать фильм Дивергент, глава 2: Инсургент бесплатно
      Дивергент, глава 2: Инсургент скачать торрент в хорошем качестве
      Дивергент, глава 2: Инсургент смотреть онлайн бесплатно в хорошем качестве


      Вы не можете начинать темы
      Вы не можете отвечать на сообщения
      Вы не можете редактировать свои сообщения
      Вы не можете удалять свои сообщения
      Вы не можете голосовать в опросах
      Вы не можете прикреплять файлы к сообщениям
      Вы можете скачивать файлы