Ссылка на приватное зеркало всего за 1$. Внимание количество ограничено!!!

iTunes

iTunes

iTunes

1

iTunes

iTunes

iTunes

iTunes

iTunes

30
pack

$ от Little Big

ВАЖНО

!!Акция!!

Alien_RageХит недели

RePack

Resident Evil 21

ИГРА 18+

pack

RePack

jed

!!Акция!!

Alien_Rage

RePack

fifa19

RePack

Assassins Creed: Odyssey

RePack

NEED FOR SPEED™ PAYBACK

4 сезон

9 сезон

Бесстыжие 9 сезон

Все сериалы

все сериалы на PB.wtf

RePack

FAR CRY 5
  

Левша / Southpaw (Антуан Фукуа) [2015, драма, спорт, боевик, WEB-DL 1080p, Дубляж] iTunes pb.wtf

Левша через торрент pb.wtf

Размер: 4.03 GB | Добавлен: 4 года 10 мес. назад | Торрент скачан:1045 раз
Скачать  

31-08-2015 19:51 Левша Скачать торрент  


Левша / Southpaw
««Преодолей судьбу»»

ИНФОРМАЦИЯ:
Год выпуска:2015
Страна: США
Жанр: драма, спорт, боевик, триллер
Продолжительность: 01:58:36
Перевод: Дубляж - [Лицензия / iTunes]
Режиссер: Антуан Фукуа

В Ролях:


Джейк Джилленхол (Billy Hope), Рэйчел МакАдамс (Maureen Hope), Форест Уитакер (Tick Wills), Уна Лоуренс (Leila Hope), Фифти Сент (Jordan Mains), Скайлан Брукс (Hoppy), Наоми Харрис (Angela Rivera), Виктор Ортис (Ramone), Бо Напп (Jon Jon), Мигель Гомес (Miguel «Magic» Escobar), Доминик Колон (Mikey), Хосе Карабалло (Eli Frost)

Описание:
У боксера Билли Хоупа все было прекрасно: звание чемпиона, красавица-жена и любимая дочка. Но фортуна отворачивается от него: при трагических обстоятельствах погибает любимая жена, дисквалификация на ринге, нулевые доходы, суд лишает его родительских прав... Хоуп должен отстоять звание чемпиона и вернуть дочь. Есть ли у Хоупа шансы на победу? Все решит его знаменитый хук левой...

  • Мировая премьера:15 июня 2015

    ТЕХ.ДАННЫЕ:
    Качество: WEB-DL 1080p
    Формат: MKV
    Видео кодек: AVC
    Аудио кодек: AC3
    Видео: AVC, 1912x796 (2.40:1), 4377 kbps, 25 fps, 0,115 bpp
    Аудио: русский / AC3 / 5.1 / 48 kHz / 384 kbps / 16 bit ||
    Навигация по главам: есть


    General
    Unique ID : 176189697801170010850139790901932297073 (0x848CE6C7F800A48EB1BEB5DB3AC98B71)
    Complete name : D:\Торенты\Southpaw.2015.D.1080p.WEB-DL.Rus-HDCLUB.mkv
    Format : Matroska
    Format version : Version 4 / Version 2
    File size : 4.03 GiB
    Duration : 1h 58mn
    Overall bit rate : 4 859 Kbps
    Movie name : Release for HDCLUB
    Encoded date : UTC 2015-08-31 19:05:21
    Writing application : mkvmerge v6.2.0 ('Promised Land') built on Apr 28 2013 12:22:01
    Writing library : libebml v1.3.0 + libmatroska v1.4.0

    Video
    ID : 1
    Format : AVC
    Format/Info : Advanced Video Codec
    Format profile : High@L4.0
    Format settings, CABAC : Yes
    Format settings, ReFrames : 5 frames
    Codec ID : V_MPEG4/ISO/AVC
    Duration : 1h 58mn
    Bit rate : 4 378 Kbps
    Width : 1 912 pixels
    Height : 796 pixels
    Display aspect ratio : 2.40:1
    Frame rate : 25.000 fps
    Color space : YUV
    Chroma subsampling : 4:2:0
    Bit depth : 8 bits
    Scan type : Progressive
    Bits/(Pixel*Frame) : 0.115
    Stream size : 3.63 GiB (90%)
    Language : English
    Default : Yes
    Forced : No
    Color primaries : BT.709-5, BT.1361, IEC 61966-2-4, SMPTE RP177
    Transfer characteristics : BT.709-5, BT.1361
    Matrix coefficients : BT.709-5, BT.1361, IEC 61966-2-4 709, SMPTE RP177

    Audio
    ID : 2
    Format : AC-3
    Format/Info : Audio Coding 3
    Mode extension : CM (complete main)
    Codec ID : A_AC3
    Duration : 1h 58mn
    Bit rate mode : Constant
    Bit rate : 384 Kbps
    Channel(s) : 6 channels
    Channel positions : Front: L C R, Side: L R, LFE
    Sampling rate : 48.0 KHz
    Bit depth : 16 bits
    Compression mode : Lossy
    Stream size : 326 MiB (8%)
    Language : Russian
    Default : Yes
    Forced : No

    Menu
    00:00:00.000 : en:1
    00:08:27.000 : en:2
    00:19:11.000 : en:3
    00:29:22.000 : en:4
    00:38:07.000 : en:5
    00:47:06.000 : en:6
    00:57:02.000 : en:7
    01:08:03.000 : en:8
    01:18:25.000 : en:9
    01:29:27.000 : en:10
    01:35:17.000 : en:11
    01:47:37.000 : en:12
    01:54:46.000 : en:13
    Скриншоты:


    © Оформление by Ворон
    pb.wtf



  • Скачать Левша через торрент http://pic.kartinco.top/images/6/ordi9.jpg Скачать фильм Левша через торрент бесплантно в хорошем качестве Описание: У боксера Билли Хоупа все было прекрасно: звание чемпиона, красавица-жена и любимая дочка. Но фортуна отворачивается от него: при ... 10 10 20
    Info! Золотая раздача, скачанное не засчитывается.
    Торрент: Зарегистрирован [2015-08-31 19:51] · скачан: 1 045 раз
    Статус: √ проверено
    Размер: 4.03 GB
    Как cкачать? Как скачать Левша через торрент | qTorrent

    % Раздел Тема Автор DL S | L
    Фильмы (Blu-ray, BD-Remux, HDDVD) [ 27.47 GB ] Левша / Southpaw [2015 BD Remux Pavlin Скачать
    1 | 0
    Фильмы (WEB-DL 720p, 1080p) [ 3.69 GB ] Левша / Southpaw [2015 WEB-DL 720p Дублированное Ворон Скачать
    1 | 0
    Фильмы 2015 [DVDrip, WEB-DLRip, HDrip] [ 2.17 GB ] Левша / Southpaw [2015 HDRip by Dean24] Dean24 Скачать
    1 | 0
    Фильмы 2015 [DVDrip, WEB-DLRip, HDrip] [ 2.05 GB ] Левша / Southpaw [2015 HDRip] killermax2013 Скачать
    1 | 0
    Фильмы 2015 [DVDrip, WEB-DLRip, HDrip] [ 1.46 GB ] Левша / Southpaw [2015 WEB-DLRip Дублированное Ворон Скачать
    1 | 0
    Фильмы 2015 [DVDrip, WEB-DLRip, HDrip] [ 2.19 GB ] Левша / Southpaw [2015 WEB-DLRip ""] coc900 Скачать
    1 | 0
    Фильмы 2015 [DVDrip, WEB-DLRip, HDrip] [ 740 MB ] Левша / Southpaw [2015 WEB-DLRip ] makarevich Скачать
    1 | 0

    28-11-2019 20:33  

    Отключить всю рекламу на сайте

    01-09-2015 11:10 Левша Скачать торрент  

    Со всего фильма мне понравилась только актерская игра девчонки. 13 лет, а сыграла лучше всех.pb.wtf



    02-09-2015 10:53 Левша Скачать торрент  

    Отличный фильм.pb.wtf



      Дорогой пользователь! Огромная просьба, поблагодарите релизера, оцените раздачу и оставьте свои комментарий, если Вы скачали Левша через торрент бесплатно! Внесите свою лепту в развитие PiratBit!
      Комментировать посты могут только пользователи прошедшие не сложную регистрацию
      Показать сообщения:    

      Левша через торрент
      Скачать бесплатно Левша
      Левша скачать торрент
      Левша смотреть онлайн
      Cкачать фильм Левша бесплатно
      Левша скачать торрент в хорошем качестве
      Левша смотреть онлайн бесплатно в хорошем качестве


      Вы не можете начинать темы
      Вы не можете отвечать на сообщения
      Вы не можете редактировать свои сообщения
      Вы не можете удалять свои сообщения
      Вы не можете голосовать в опросах
      Вы не можете прикреплять файлы к сообщениям
      Вы можете скачивать файлы