1 сезон

1 сезон

iTunes

1

КиноПоиск HD

Кинопоиск HD

iTunes

13

1 сезон

RePack

30

Новинка

ВАЖНО

ИГРА 18+

pack

RePack

MK11
pack

Легкие деньги

RePack

jed

RePack

fifa19

RePack

RDR2

RePack

NEED FOR SPEED™ PAYBACK

4 сезон

9 сезон

Бесстыжие 9 сезон

Все сериалы

все сериалы на PB.wtf

RePack

FAR CRY 5
  
Magnet ссылка

Спуск / The Descent (Нил Маршалл) [2005, ужасы, приключения, BDRip AVC by msltel] DUB, 2 x MVO, AVO pb.wtf

Спуск через торрент pb.wtf

Раздают: 1 [ 0 KB/s ]
Размер: 2.84 GB | Добавлен: 5 лет 7 мес. назад | Торрент скачан:255 раз
Скачать  

01-09-2015 09:25 Спуск Скачать торрент  

Название: Спуск
Оригинальное название: The Descent
Год выпуска: 2005
Страна: Великобритания
Жанр: ужасы, приключения
Продолжительность: 01:43:20
Перевод: дублированный, профессиональный многоголосый, авторский

Режиссёр: Нил Маршалл

В ролях: Шона МакДональд, Натали Джексон Мендоза, Алекс Рейд, Саския Малдер, Мианна Баринг, Нора-Джейн Нун, Оливер Милберн, Молли Кайл, Крэйг Конуэй, Лесли Симпсон

Описание: Компания смелых очаровательных девушек привыкла проводить свой отпуск в экстремальных путешествиях. На этот раз принято решение исследовать отдалённые горные хребты. Всё идёт неплохо до тех пор, пока они не находят загадочный грот. Какие тайны он хранит? Женское любопытство одерживает верх над осторожностью, и вот подруги уже глубоко под землёй. Внезапный камнепад замуровывает выход наверх, и герои вынуждены отправиться вглубь бесконечных тёмных катакомб в поисках спасения. Вскоре они выясняют, что мрак, холод, голод, отчаянье и страх — не единственные их попутчики в этом подземном путешествии. Грот оказывается населён неизвестными кошмарными созданиями, которые не прочь познакомиться поближе. Долгожданный отпуск оборачивается леденящим душу ужасом, а загадочная пещера — склепом. Темнота и тишина, только слышно, как быстро бьётся твоё собственное сердце, охваченное первобытным страхом...



Качество: BDRip AVC Сравнение с исходником
Формат: MKV
Видео кодек: H.264
Аудио кодек: AC3
Видео: MPEG-4 AVC, 1940 Кбит/с, 1024х438, 24 кадра/с
Аудио 1: русский, AC3, 384 kbps, 6 ch, 48 kHz [дублированный]
Аудио 2: русский, AC3, 448 kbps, 6 ch, 48 kHz [профессиональный многоголосый, Супербит]
Аудио 3: русский, AC3, 192 kbps, 2 ch, 48 kHz [профессиональный многоголосый]
Аудио 4: русский, AC3, 448 kbps, 6 ch, 48 kHz [авторский, Дмитрий Есарев]
Аудио 5: английский, AC3, 448 kbps, 6 ch, 48 kHz [оригинал]
Субтитры 1: русские
Субтитры 2: английские
Сатурн, 2007 год
Победитель (1):
Лучший фильм ужасов

Номинации (2):
Лучшая актриса (Шона МакДональд)
Лучший грим
Общее
Уникальный идентификатор : 229310159054139799645232676397176378656 (0xAC8387BA5D7B908F8989EEF300A4D520)
Полное имя : D:VideoСпуск.2005.BDRip.AVC.mkv
Формат : Matroska
Версия формата : Version 4 / Version 2
Размер файла : 2,84 Гбайт
Продолжительность : 1 ч. 43 м.
Общий поток : 3939 Кбит/сек
Название фильма : BDRip -- STarankov
Дата кодирования : UTC 2015-09-01 04:48:05
Программа кодирования : mkvmerge v8.2.0 ('World of Adventure') 64bit
Библиотека кодирования : libebml v1.3.1 + libmatroska v1.4.2
DURATION : 01:33:14.040000000
NUMBER_OF_FRAMES : 628
NUMBER_OF_BYTES : 19908
_STATISTICS_WRITING_APP : mkvmerge v8.2.0 ('World of Adventure') 64bit
_STATISTICS_WRITING_DATE_UTC : 2015-09-01 04:48:05
_STATISTICS_TAGS : BPS DURATION NUMBER_OF_FRAMES NUMBER_OF_BYTES

Видео
Идентификатор : 1
Формат : AVC
Формат/Информация : Advanced Video Codec
Профиль формата : High@L4.1
Параметр CABAC формата : Да
Параметр ReFrames формата : 9 кадров
Идентификатор кодека : V_MPEG4/ISO/AVC
Продолжительность : 1 ч. 43 м.
Битрейт : 1940 Кбит/сек
Ширина : 1024 пикселя
Высота : 438 пикселей
Соотношение сторон : 2,35:1
Режим частоты кадров : Постоянный
Частота кадров : 24,000 кадра/сек
Цветовое пространство : YUV
Субдискретизация насыщенности : 4:2:0
Битовая глубина : 8 бит
Тип развёртки : Прогрессивная
Бит/(Пиксели*Кадры) : 0.180
Размер потока : 1,40 Гбайт (49%)
Библиотека кодирования : x264 core 146 r2538 121396c
Настройки программы : cabac=1 / ref=9 / deblock=1:-3:-3 / analyse=0x3:0x113 / me=umh / subme=10 / psy=1 / psy_rd=1.00:0.15 / mixed_ref=1 / me_range=32 / chroma_me=1 / trellis=2 / 8x8dct=1 / cqm=0 / deadzone=21,11 / fast_pskip=1 / chroma_qp_offset=-3 / threads=6 / lookahead_threads=1 / sliced_threads=0 / nr=0 / decimate=1 / interlaced=0 / bluray_compat=0 / constrained_intra=0 / bframes=11 / b_pyramid=2 / b_adapt=2 / b_bias=0 / direct=1 / weightb=1 / open_gop=0 / weightp=2 / keyint=230 / keyint_min=23 / scenecut=40 / intra_refresh=0 / rc_lookahead=40 / rc=crf / mbtree=0 / crf=19.5 / qcomp=0.60 / qpmin=0 / qpmax=69 / qpstep=4 / vbv_maxrate=40000 / vbv_bufsize=50000 / crf_max=0.0 / nal_hrd=none / filler=0 / ip_ratio=1.40 / pb_ratio=1.30 / aq=1:1.00
Язык : English
Default : Да
Forced : Нет
DURATION : 01:39:24.000000000
NUMBER_OF_FRAMES : 143136
NUMBER_OF_BYTES : 1606302510
_STATISTICS_WRITING_APP : mkvmerge v8.2.0 ('World of Adventure') 64bit
_STATISTICS_WRITING_DATE_UTC : 2015-09-01 04:48:05
_STATISTICS_TAGS : BPS DURATION NUMBER_OF_FRAMES NUMBER_OF_BYTES

Аудио #1
Идентификатор : 2
Формат : AC-3
Формат/Информация : Audio Coding 3
Расширение режима : CM (complete main)
Параметр Endianness формата : Big
Идентификатор кодека : A_AC3
Продолжительность : 1 ч. 43 м.
Вид битрейта : Постоянный
Битрейт : 384 Кбит/сек
Каналы : 6 каналов
Расположение каналов : Front: L C R, Side: L R, LFE
Частота : 48,0 КГц
Метод сжатия : С потерями
Размер потока : 284 Мбайт (10%)
Заголовок : DUB
Язык : Russian
Default : Да
Forced : Нет

Аудио #2
Идентификатор : 3
Формат : AC-3
Формат/Информация : Audio Coding 3
Расширение режима : CM (complete main)
Параметр Endianness формата : Big
Идентификатор кодека : A_AC3
Продолжительность : 1 ч. 43 м.
Вид битрейта : Постоянный
Битрейт : 448 Кбит/сек
Каналы : 6 каналов
Расположение каналов : Front: L C R, Side: L R, LFE
Частота : 48,0 КГц
Метод сжатия : С потерями
Размер потока : 331 Мбайт (11%)
Заголовок : MVO (Супербит)
Язык : Russian
Default : Нет
Forced : Нет

Аудио #3
Идентификатор : 4
Формат : AC-3
Формат/Информация : Audio Coding 3
Расширение режима : CM (complete main)
Параметр Endianness формата : Big
Идентификатор кодека : A_AC3
Продолжительность : 1 ч. 43 м.
Вид битрейта : Постоянный
Битрейт : 192 Кбит/сек
Каналы : 2 канала
Расположение каналов : Front: L R
Частота : 48,0 КГц
Метод сжатия : С потерями
Размер потока : 142 Мбайт (5%)
Заголовок : MVO
Язык : Russian
Default : Нет
Forced : Нет

Аудио #4
Идентификатор : 5
Формат : AC-3
Формат/Информация : Audio Coding 3
Расширение режима : CM (complete main)
Параметр Endianness формата : Big
Идентификатор кодека : A_AC3
Продолжительность : 1 ч. 43 м.
Вид битрейта : Постоянный
Битрейт : 448 Кбит/сек
Каналы : 6 каналов
Расположение каналов : Front: L C R, Side: L R, LFE
Частота : 48,0 КГц
Метод сжатия : С потерями
Размер потока : 331 Мбайт (11%)
Заголовок : AVO (Дмитрий Есарев)
Язык : Russian
Default : Нет
Forced : Нет

Аудио #5
Идентификатор : 6
Формат : AC-3
Формат/Информация : Audio Coding 3
Расширение режима : CM (complete main)
Параметр Endianness формата : Big
Идентификатор кодека : A_AC3
Продолжительность : 1 ч. 43 м.
Вид битрейта : Постоянный
Битрейт : 448 Кбит/сек
Каналы : 6 каналов
Расположение каналов : Front: L C R, Side: L R, LFE
Частота : 48,0 КГц
Метод сжатия : С потерями
Размер потока : 331 Мбайт (11%)
Заголовок : Original
Язык : English
Default : Нет
Forced : Нет

Текст #1
Идентификатор : 7
Формат : UTF-8
Идентификатор кодека : S_TEXT/UTF8
Идентификатор кодека/Информация : UTF-8 Plain Text
Заголовок : русский
Язык : Russian
Default : Нет
Forced : Нет

Текст #2
Идентификатор : 8
Формат : UTF-8
Идентификатор кодека : S_TEXT/UTF8
Идентификатор кодека/Информация : UTF-8 Plain Text
Заголовок : английский
Default : Нет
Forced : Нет
pb.wtf



Скачать Спуск через торрент http://i68.fastpic.ru/big/2015/0901/63/a692d23b2dca8d921fcd829756eccc63.jpg Скачать фильм Спуск через торрент бесплантно в хорошем качестве Описание: Компания смелых очаровательных девушек привыкла проводить свой отпуск в экстремальных путешествиях. На этот раз принято решение ... 10 10 5
Info! Золотая раздача, скачанное не засчитывается.
Торрент: Зарегистрирован [2015-09-01 09:25] · скачан: 255 раз
Статус: √ проверено
Размер: 2.84 GB
Как cкачать? Как скачать Спуск через торрент | UTorrent

% Раздел Тема Автор DL S | L
Фильмы [HD 720p, 1080p] (Хороший звук DUB, MVO) [ 10.54 GB ] Спуск / The Descent [2005 BDRip 1080p by msltel] DUB 2 x MVO AVO msltel Скачать
1 | 0
Фильмы [HD 720p, 1080p] (Хороший звук DUB, MVO) [ 4.21 GB ] Спуск / The Descent [2005 BDRip 720p by msltel] DUB 2 x MVO AVO msltel Скачать
1 | 0

28-11-2019 20:33  

Отключить всю рекламу на сайте

01-09-2015 16:39 Спуск Скачать торрент  

Шикарный фильмец! спсpb.wtf



    Дорогой пользователь! Огромная просьба, поблагодарите релизера, оцените раздачу и оставьте свои комментарий, если Вы скачали Спуск через торрент бесплатно! Внесите свою лепту в развитие PiratBit!
    Комментировать посты могут только пользователи прошедшие не сложную регистрацию
    Показать сообщения:    

    Спуск через торрент
    Скачать бесплатно Спуск
    Спуск скачать торрент
    Спуск смотреть онлайн
    Cкачать фильм Спуск бесплатно
    Спуск скачать торрент в хорошем качестве
    Спуск смотреть онлайн бесплатно в хорошем качестве


    Вы не можете начинать темы
    Вы не можете отвечать на сообщения
    Вы не можете редактировать свои сообщения
    Вы не можете удалять свои сообщения
    Вы не можете голосовать в опросах
    Вы не можете прикреплять файлы к сообщениям
    Вы можете скачивать файлы