Ссылка на приватное зеркало нашего сайта всего за 1$. Внимание количество ограничено!!!

2 сезон

iTunes

1 сезон

1

2 сезон

2 сезон

iTunes

1 сезон

RePack

30

Новинка

ВАЖНО

ИГРА 18+

pack

RePack

MK11
pack

Забери бонус

RePack

jed

!!Акция!!

Alien_Rage

RePack

fifa19

RePack

Assassins Creed: Odyssey

RePack

NEED FOR SPEED™ PAYBACK

4 сезон

9 сезон

Бесстыжие 9 сезон

Все сериалы

все сериалы на PB.wtf

RePack

FAR CRY 5
  

Секс, наркотики и рок-н-ролл / Sex&Drugs&Rock&Roll / Сезон: 1 / Серии 1-8 из 10 (Майкл Блиден , Дэнис Лири) [2015, комедия, WEB-DLRip] MVO - BaibaKo pb.wtf

Секс, наркотики и рок-н-ролл через торрент pb.wtf

Размер: 2.7 GB | Добавлен: 5 лет 2 мес. назад | Торрент скачан:26 раз
Скачать  

01-09-2015 13:33 Секс, наркотики и рок-н-ролл Скачать торрент  


Год выпуска: 2015
Страна: США
Жанр: комедия
Продолжительность: 1~ 00:25:32
Перевод: Профессиональный многоголосый [BaibaKo]
Сезон: 1
Кол-во Серий: 1-8 из 10
Режиссер: Майкл Блиден , Дэнис Лири
В ролях: Дэнис Лири (Johnny Rock), Джон Корбетт (Flash), Элизабет Гиллис (Gigi), Элэйн Хендрикс (Ava), Роберт Келли (Bam Bam), Джон Алес (Rehab), Джош Пэйс (Ira Feinbaum), Гриффин Данн, Келли Бишоп, Артуро Кастро (Pizza Guy), Тео Эллис (Wardrobe Guy), Брайан Фишер
Описание:
Сюжет сериала рассказывает о рок-н-рольщике среднего возраста, который отчаянно хочет быть богатым и знаменитым, но до сих пор ему не удалось ни одно, ни другое.

Качество: WEB-DLRip
Формат: AVI
Видео кодек: XviD
Аудио кодек: MP3
Видео: XviD, 720x400 (16:9), 1511 kbps, 23,976 fps, 0,219 bpp
Аудио №1: MP3 / 2.0 / 48 kHz / 192 kbps /
Аудио №2: MP3 / 2.0 / 48 kHz / 192 kbps /

Код:

General
Complete name               : E:\торрент\Sex&Drugs&Rock&Roll.S01.WEB-DLRip.BaibaKo\Sex&Drugs&Rock&Roll.S01E01.WEB-DLRip.XviD.Rus.Eng.BaibaKo.tv.avi
Format                      : AVI
Format/Info                 : Audio Video Interleave
File size                   : 349 MiB
Duration                    : 25mn 32s
Overall bit rate            : 1 910 Kbps
Writing application         : VirtualDubMod 1.5.10.2 (build 2540/release)
Writing library             : VirtualDubMod build 2540/release

Video
ID                          : 0
Format                      : MPEG-4 Visual
Format profile              : Advanced Simple@L5
Format settings, BVOP       : 2
Format settings, QPel       : No
Format settings, GMC        : No warppoints
Format settings, Matrix     : Default (H.263)
Codec ID                    : XVID
Codec ID/Hint               : XviD
Duration                    : 25mn 32s
Bit rate                    : 1 512 Kbps
Width                       : 720 pixels
Height                      : 400 pixels
Display aspect ratio        : 16:9
Frame rate                  : 23.976 fps
Color space                 : YUV
Chroma subsampling          : 4:2:0
Bit depth                   : 8 bits
Scan type                   : Progressive
Compression mode            : Lossy
Bits/(Pixel*Frame)          : 0.219
Stream size                 : 276 MiB (79%)
Writing library             : XviD 1.2.1 (UTC 2008-12-04)

Audio #1
ID                          : 1
Format                      : MPEG Audio
Format version              : Version 1
Format profile              : Layer 3
Mode                        : Joint stereo
Mode extension              : MS Stereo
Codec ID                    : 55
Codec ID/Hint               : MP3
Duration                    : 25mn 32s
Bit rate mode               : Constant
Bit rate                    : 192 Kbps
Channel(s)                  : 2 channels
Sampling rate               : 48.0 KHz
Compression mode            : Lossy
Stream size                 : 35.1 MiB (10%)
Alignment                   : Aligned on interleaves
Interleave, duration        : 42 ms (1.00 video frame)
Interleave, preload duratio : 504 ms

Audio #2
ID                          : 2
Format                      : MPEG Audio
Format version              : Version 1
Format profile              : Layer 3
Mode                        : Joint stereo
Mode extension              : MS Stereo
Codec ID                    : 55
Codec ID/Hint               : MP3
Duration                    : 25mn 32s
Bit rate mode               : Constant
Bit rate                    : 192 Kbps
Channel(s)                  : 2 channels
Sampling rate               : 48.0 KHz
Compression mode            : Lossy
Stream size                 : 35.1 MiB (10%)
Alignment                   : Aligned on interleaves
Interleave, duration        : 42 ms (1.00 video frame)
Interleave, preload duratio : 504 ms

1 серия «Don't Wanna Die Anonymous» (16 Июл, 2015)
2 серия «Clean Rockin Daddy» (23 Июл, 2015)
3 серия «Lust for Life» (30 Июл, 2015)
4 серия «What You Like Is In The Limo» (6 Авг, 2015)
5 серия «Doctor Doctor» (13 Авг, 2015)
6 серия «Tattoo You» (20 Авг, 2015)
7 серия «Supercalifragilisticjuliefriggingandrews» (27 Авг, 2015)
8 серия «Hard Out Here for a Pimp» (3 Сен, 2015)
9 серия «Take My Picture by the Pool» (10 Сен, 2015) - ожидается
10 серия «Because We're Legion» (17 Сен, 2015) - ожидается

Код:

Внимание! Раздача ведётся путём добавления новых серий; при каждом добавлении создаётся новый торрент. Чтобы начать докачку новой серии, пользователям необходимо сделать следующее:
(1) остановить скачивание,
(2) удалить старый торрент у себя из клиента (старые серии удалять не надо),
(3) скачать новый торрент и запустить его у себя в клиенте вместо старого, при этом указать клиенту путь в старую папку куда и должно происходить скачивание новых серий.
Ваш клиент при этом должен произвести хеширование (проверку) старой папки (если не производит сам - помогите ему сделать это), и будет докачивать только те серии которых у вас ещё нет. Старые серии при этом не удаляются, а продолжают раздаваться!
Eсли вы уже удалили старые серии, то предотвратить повторную закачку старых серий можно, отжав галочку в соответсвующих местах при запуске нового торрента. По возможности, желательно не удалять старые серии как можно дольше чтобы релизёр не столько продолжал раздавать старые серии, а смог сконцентрироваться на новых.


Добавлена 8-я Серия. Просьба перехешировать торрент-файл.pb.wtf



Скачать Секс, наркотики и рок-н-ролл через торрент http://pic1.kartinco.top/images/10/7ofr5.jpg Скачать фильм Секс, наркотики и рок-н-ролл через торрент бесплантно в хорошем качестве Описание: Сюжет сериала рассказывает о рок-н-рольщике среднего возраста, который отчаянно хочет быть богатым и знаменитым, но до сих пор ... 10 10 5
Торрент: Зарегистрирован [2015-09-07 15:34] · скачан: 26 раз
Статус: √ проверено
Размер: 2.7 GB
Как cкачать? Как скачать Секс, наркотики и рок-н-ролл через торрент | qTorrent

28-11-2019 20:33  

Отключить всю рекламу на сайте

    Дорогой пользователь! Огромная просьба, поблагодарите релизера, оцените раздачу и оставьте свои комментарий, если Вы скачали Секс, наркотики и рок-н-ролл через торрент бесплатно! Внесите свою лепту в развитие PiratBit!
    Комментировать посты могут только пользователи прошедшие не сложную регистрацию
    Показать сообщения:    

    Секс, наркотики и рок-н-ролл через торрент
    Скачать бесплатно Секс, наркотики и рок-н-ролл
    Секс, наркотики и рок-н-ролл скачать торрент
    Секс, наркотики и рок-н-ролл смотреть онлайн
    Cкачать фильм Секс, наркотики и рок-н-ролл бесплатно
    Секс, наркотики и рок-н-ролл скачать торрент в хорошем качестве
    Секс, наркотики и рок-н-ролл смотреть онлайн бесплатно в хорошем качестве


    Вы не можете начинать темы
    Вы не можете отвечать на сообщения
    Вы не можете редактировать свои сообщения
    Вы не можете удалять свои сообщения
    Вы не можете голосовать в опросах
    Вы не можете прикреплять файлы к сообщениям
    Вы можете скачивать файлы