MEGA NEWS Получи личный уникальный адрес сайта и защити себя от блокировок. Внимание количество ограничено!!!

iTunes

1+1

iTunes

мы

iTunes

1

iTunes

Чернобыль

iTunes

Ральф против интернета

Лицензия

ПШазам

Лицензия

Игра престолов

Лицензия

30
pack

ВАЖНО

!!Акция!!

Alien_RageХит недели

RePack

Resident Evil 21

ИГРА 18+

pack

RePack

Metro:Exodus

!!Акция!!

Alien_Rage

RePack

fifa19

RePack

Assassins Creed: Odyssey

RePack

NEED FOR SPEED™ PAYBACK

3 сезон

9 сезон

Бесстыжие 9 сезон

Все сериалы

все сериалы на PB.wtf

RePack

FAR CRY 5
Ребята, катастрофически не хватает 1900р. для оплаты серверов за АВГУСТ (всвязи с блокировками трафик упал в 3 раза), 1-2р., выручайте.
  

Последний дом слева / The Last House on the Left (Unrated) (Дэннис Илиадис / Dennis Iliadis) [2009, США, ужасы, триллер, драма, BDRip 1080p от _denis_100 / NNNB] Dub + Sub Rus, Eng + Original Eng pb.wtf

Последний дом слева через торрент pb.wtf

Размер: 11.5 GB | Добавлен: 4 года 1 мес. назад | Торрент скачан:112 раз
Скачать  

01-09-2015 16:29 Последний дом слева Скачать торрент  

Последний дом слева / The Last House on the Left (Unrated)
«Смерть еще нужно заслужить»


Год выпуска: 2009
Страна: США
Жанр: ужасы, триллер, драма, криминал
Продолжительность: 01:53:37
Перевод: Дублированный
Субтитры: русские, английские
Режиссер: Дэннис Илиадис
В ролях: Тони Голдуин , Моника Поттер , Сара Пэкстон , Гаррет Диллахант , Аарон Пол , Рики Линдхоум , Марта МакАйсак , Спенсер Трит Кларк , Майкл Боуэн , Джош Кокс , Уша Кхан
Описание:
Мама, папа и дочь отправляются в загородный дом, чтобы счастливо провести выходные дни. Сначала кажется удивительным, что дочь-подросток соглашается провести свободное время подобным образом. Но все очень просто - недалеко от этого дома находится городок, где живет ее лучшая подруга. Девушки встречаются и знакомятся со странным парнем, у которого есть травка.
Компания приходит в отель и готовится оттянуться по-взрослому, но в самый неподходящий момент появляются беглые преступники, которые начинают жестоко глумиться над девчонками. Затем они перемещаются в тот самый последний дом слева, где сталкиваются с родителями девушки. Ничего не подозревающие родители предоставляют кров преступникам, но затем события развиваются по жестокому сценарию.

R - Лицам до 17 лет обязательно присутствие взрослого
Качество: BDRip 1080p
Контейнер (Расширение): MKV
Видео кодек: AVC
Аудио кодек: AC3
Видео: 1920x1040, 13400 Кбит/сек, 23,976 кадр/сек, 0,280 Бит/[Пиксели*Кадры]
Аудио №1: русский / AC3 / 5.1 / 48 kHz / 448 kbps / 16 bit |Дублированный|
Аудио №2: английский / AC3 / 5.1 / 48 kHz / 640 kbps / 16 bit
Навигация по главам(Чаптеры): естьАвтор рипа: Сообщество:
  • Актёр Тони Голдуин сначала отказался сниматься в фильме из-за огромного количества насилия, но, посмотрев фильм «Хардкор» (2004), актёр передумал.
  • Продюсер Джонатан Крэйвен исполнил роль мальчика, чей воздушный шарик лопает Крэг в оригинальном фильме «Последний дом слева» (1972).
  • В сцене в номере отеля можно заметить синяки как у Пэйдж, так и у Мэри. В одном из интервью актрисы сказали, что синяки были получены во время съёмок сцен в лесу, которые предшествовали отельным сценам. Гримёры пытались скрыть их слоями косметики, но поскольку актрисы сами исполняли свои трюки в фильме, скрыть синяки гримом оказалось очень сложно
  • Сначала съёмки фильма планировалось провести в Уэстпорте, штат Коннектикут, где снимали оригинальный фильм 1972 года. Но из-за пожаров съёмки решено было перенести в другое место.
  • Студия рассматривала кандидатуры как минимум 100 режиссёров, прежде чем утвердить Денниса Илиадиса.
  • Код:

    Format                                   : Matroska
    Format version                           : Version 2
    File size                                : 11.5 GiB
    Duration                                 : 1h 53mn
    Overall bit rate                         : 14.5 Mbps
    Movie name                               : Poslednij dom sleva.(2009).BDRip.1080p.[denis100]
    Encoded date                             : UTC 2015-09-01 15:22:05
    Writing application                      : mkvmerge v5.8.0 ('No Sleep / Pillow') built on Sep  2 2012 15:37:04
    Writing library                          : libebml v1.2.3 + libmatroska v1.3.0

    Video
    ID                                       : 1
    Format                                   : AVC
    Format/Info                              : Advanced Video Codec
    Format profile                           : High@L4.1
    Format settings, CABAC                   : Yes
    Format settings, ReFrames                : 4 frames
    Codec ID                                 : V_MPEG4/ISO/AVC
    Duration                                 : 1h 53mn
    Bit rate                                 : 13.4 Mbps
    Width                                    : 1 920 pixels
    Height                                   : 1 040 pixels
    Display aspect ratio                     : 16:9
    Frame rate                               : 23.976 fps
    Color space                              : YUV
    Chroma subsampling                       : 4:2:0
    Bit depth                                : 8 bits
    Scan type                                : Progressive
    Bits/(Pixel*Frame)                       : 0.280
    Stream size                              : 10.4 GiB (90%)
    Title                                    : Poslednij dom sleva.(2009).BDRip.1080p.[denis100]
    Writing library                          : x264 core 148 r2579 73ae2d1
    Encoding settings                        : cabac=1 / ref=4 / deblock=1:-3:-3 / analyse=0x3:0x133 / me=umh / subme=11 / psy=1 / psy_rd=1.00:0.15 / mixed_ref=1 / me_range=48 / chroma_me=1 / trellis=2 / 8x8dct=1 / cqm=0 / deadzone=21,11 / fast_pskip=0 / chroma_qp_offset=-3 / threads=6 / lookahead_threads=1 / sliced_threads=0 / nr=0 / decimate=1 / interlaced=0 / bluray_compat=0 / constrained_intra=0 / bframes=12 / b_pyramid=2 / b_adapt=2 / b_bias=0 / direct=1 / weightb=1 / open_gop=0 / weightp=2 / keyint=240 / keyint_min=23 / scenecut=40 / intra_refresh=0 / rc=2pass / mbtree=0 / bitrate=13400 / ratetol=1.0 / qcomp=0.60 / qpmin=0 / qpmax=69 / qpstep=4 / cplxblur=20.0 / qblur=0.5 / ip_ratio=1.40 / pb_ratio=1.30 / aq=1:1.00
    Language                                 : English
    Default                                  : Yes
    Forced                                   : No

    Audio #1
    ID                                       : 2
    Format                                   : AC-3
    Format/Info                              : Audio Coding 3
    Mode extension                           : CM (complete main)
    Codec ID                                 : A_AC3
    Duration                                 : 1h 53mn
    Bit rate mode                            : Constant
    Bit rate                                 : 448 Kbps
    Channel(s)                               : 6 channels
    Channel positions                        : Front: L C R, Side: L R, LFE
    Sampling rate                            : 48.0 KHz
    Bit depth                                : 16 bits
    Compression mode                         : Lossy
    Stream size                              : 364 MiB (3%)
    Title                                    : Дублированный
    Language                                 : Russian
    Default                                  : Yes
    Forced                                   : No

    Audio #2
    ID                                       : 3
    Format                                   : AC-3
    Format/Info                              : Audio Coding 3
    Mode extension                           : CM (complete main)
    Codec ID                                 : A_AC3
    Duration                                 : 1h 53mn
    Bit rate mode                            : Constant
    Bit rate                                 : 640 Kbps
    Channel(s)                               : 6 channels
    Channel positions                        : Front: L C R, Side: L R, LFE
    Sampling rate                            : 48.0 KHz
    Bit depth                                : 16 bits
    Compression mode                         : Lossy
    Stream size                              : 520 MiB (4%)
    Language                                 : English
    Default                                  : No
    Forced                                   : No

    Text #1
    ID                                       : 4
    Format                                   : UTF-8
    Codec ID                                 : S_TEXT/UTF8
    Codec ID/Info                            : UTF-8 Plain Text
    Language                                 : Russian
    Default                                  : No
    Forced                                   : No

    Text #2
    ID                                       : 5
    Format                                   : UTF-8
    Codec ID                                 : S_TEXT/UTF8
    Codec ID/Info                            : UTF-8 Plain Text
    Language                                 : English
    Default                                  : No
    Forced                                   : No

    Menu
    00:00:00.000                             : en:Chapter 01
    00:05:21.251                             : en:Chapter 02
    00:10:41.535                             : en:Chapter 03
    00:14:30.326                             : en:Chapter 04
    00:18:13.818                             : en:Chapter 05
    00:22:38.063                             : en:Chapter 06
    00:29:02.895                             : en:Chapter 07
    00:35:00.010                             : en:Chapter 08
    00:40:35.430                             : en:Chapter 09
    00:49:00.226                             : en:Chapter 10
    00:58:04.073                             : en:Chapter 11
    01:05:42.358                             : en:Chapter 12
    01:06:17.348                             : en:Chapter 13
    01:11:49.119                             : en:Chapter 14
    01:19:20.273                             : en:Chapter 15
    01:27:10.300                             : en:Chapter 16
    01:33:11.080                             : en:Chapter 17
    01:39:47.645                             : en:Chapter 18
    01:46:40.447                             : en:Chapter 19

    x264 [info]: frame I:821 Avg QP:18.94 size:201162
    x264 [info]: frame P:38909 Avg QP:20.41 size:108199
    x264 [info]: frame B:123732 Avg QP:22.83 size: 56904
    x264 [info]: consecutive B-frames: 2.9% 6.1% 6.2% 29.0% 9.4% 35.0% 3.9% 3.5% 0.9% 1.8% 0.2% 1.1% 0.1%
    pb.wtf



    Скачать Последний дом слева через торрент http://i66.fastpic.ru/big/2015/0901/48/11dc597a3a5bf98aed9bcabfc9948348.png Скачать фильм Последний дом слева через торрент бесплантно в хорошем качестве Описание:Мама, папа и дочь отправляются в загородный дом, чтобы счастливо провести выходные дни. Сначала кажется удивительным, что ... 10 10 6
    Info! Золотая раздача, скачанное не засчитывается.
    Торрент: Зарегистрирован [2015-09-01 16:29] · скачан: 112 раз
    Статус: √ проверено
    Размер: 11.5 GB
    Как cкачать? Как скачать Последний дом слева через торрент | qTorrent


    >> Регистрируемся здесь <<






    Отзывы и комментарии о схеме читаем и пишем здесь: ---> Отзывы и комментарии о схеме

    Новые благодарочки в телеграм довольных пользователей:
    скриншот   скриншот   скриншот   скриншот   скриншот

    01-09-2015 16:55 Последний дом слева Скачать торрент  

    Классный фильм,смотрел давно,но все равно классный триллер. 9/10 баллов.
    Спасибо автор за труды!pb.wtf



    28-09-2015 06:52 Последний дом слева Скачать торрент  

    помню смотрел-понравился фильм-спасибо раздающему-наверное в коллекциюpb.wtf



      Дорогой пользователь! Огромная просьба, поблагодарите релизера, оцените раздачу и оставьте свои комментарий, если Вы скачали Последний дом слева через торрент бесплатно! Внесите свою лепту в развитие PiratBit!
      Комментировать посты могут только пользователи прошедшие не сложную регистрацию
      Показать сообщения:    

      Последний дом слева через торрент
      Скачать бесплатно Последний дом слева
      Последний дом слева скачать торрент
      Последний дом слева смотреть онлайн
      Cкачать фильм Последний дом слева бесплатно
      Последний дом слева скачать торрент в хорошем качестве
      Последний дом слева смотреть онлайн бесплатно в хорошем качестве


      Вы не можете начинать темы
      Вы не можете отвечать на сообщения
      Вы не можете редактировать свои сообщения
      Вы не можете удалять свои сообщения
      Вы не можете голосовать в опросах
      Вы не можете прикреплять файлы к сообщениям
      Вы можете скачивать файлы