Ссылка на приватное зеркало всего за 1$. Внимание количество ограничено!!!

iTunes

1+1

iTunes

мы

WEB-DL

1

iTunes

Чернобыль

iTunes

Ральф против интернета

Лицензия

ПШазам

Лицензия

Оно 2

Лицензия

30
pack

Вам бонус

ВАЖНО

!!Акция!!

Alien_RageХит недели

RePack

Resident Evil 21

ИГРА 18+

pack

RePack

jed

!!Акция!!

Alien_Rage

RePack

fifa19

RePack

Assassins Creed: Odyssey

RePack

NEED FOR SPEED™ PAYBACK

3 сезон

9 сезон

Бесстыжие 9 сезон

Все сериалы

все сериалы на PB.wtf

RePack

FAR CRY 5
Ребята, катастрофически не хватает 1900р. для оплаты серверов за Октябрь (всвязи с блокировками трафик упал в 3 раза), 1-2р., выручайте.
  

У них есть Родина (Александр Файнциммер, Владимир Легошин) [1949, военный, DVDRip от AVP Studio] pb.wtf

У них есть Родина через торрент pb.wtf

Размер: 743 MB | Добавлен: 4 года 3 мес. назад | Торрент скачан:3 раза
Скачать  

01-09-2015 19:32 У них есть Родина Скачать торрент  

У них есть Родина
Страна: СССР
Производство: Киностудия им. Горького

Жанр: военный
Год выпуска: 1949
Продолжительность: 01:23:27

Перевод: Не требуется
Cубтитры: нет
Оригинальная аудиодорожка: русский

Режиссер: Александр Файнциммер, Владимир Легошин

В ролях:
Наталья Защипина, Леня Котов, Павел Кадочников, Вера Марецкая, Всеволод Санаев, Лидия Смирнова, Геннадий Юдин, Фаина Раневская, Владимир Соловьёв, Михаил Астангов, Виктор Станицын, Александр Хохлов, В. Рэнин, Юдифь Глизер...
Полный список актёров

Описание:
По пьесе С. Михалкова "Я хочу домой".
Советские представители подполковник Добрынин и майор Сорокин разыскивают на территории Западной Германии оказавшийся под присмотром английской разведки сиротский приют с советскими детьми, насильственно увезёнными оккупантами за границу в годы Отечественной войны, и добиваются возвращения детей на Родину.

Источник: DVD5 R5
Качество видео: DVDRip
Формат видео: AVI
Видео кодек: XviD
Аудио кодек: MP3
Видео: 640x480 (4:3), 25 fps, XviD ~ 1107 kbps avg, 0.144 bit/pixel
Аудио: 48 kHz, MP3 2.0, 128 kbps

Раздача от:
Общее
Полное имя : U.nih.est.Rodina.1949.DVDRip-745_[New-team]_by_AVP_Studio.avi
Формат : AVI
Формат/Информация : Audio Video Interleave
Размер файла : 743 Мбайт
Продолжительность : 1 ч. 23 м.
Общий поток : 1245 Кбит/сек
Программа кодирования : VirtualDubMod 1.5.10.3 | www.virtualdub-fr.org || (build 2550/release)
Библиотека кодирования : VirtualDubMod build 2550/release

Видео
Идентификатор : 0
Формат : MPEG-4 Visual
Профиль формата : Advanced Simple@L5
Параметр BVOP формата : 1
Параметр QPel формата : Нет
Параметр GMC формата : Без точки перехода
Параметр матрицы формата : Выборочная
Идентификатор кодека : XVID
Идентификатор кодека/Подсказка : XviD
Продолжительность : 1 ч. 23 м.
Битрейт : 1107 Кбит/сек
Ширина : 640 пикселей
Высота : 480 пикселей
Соотношение сторон : 4:3
Частота кадров : 25,000 кадров/сек
Цветовое пространство : YUV
Субдискретизация насыщенности : 4:2:0
Битовая глубина : 8 бит
Тип развёртки : Прогрессивная
Метод сжатия : С потерями
Бит/(Пиксели*Кадры) : 0.144
Размер потока : 661 Мбайт (89%)
Библиотека кодирования : XviD 73

Аудио
Идентификатор : 1
Формат : MPEG Audio
Версия формата : Version 1
Профиль формата : Layer 3
Идентификатор кодека : 55
Идентификатор кодека/Подсказка : MP3
Продолжительность : 1 ч. 23 м.
Вид битрейта : Постоянный
Битрейт : 128 Кбит/сек
Каналы : 2 канала
Частота : 48,0 КГц
Метод сжатия : С потерями
Размер потока : 76,4 Мбайт (10%)
Выравнивание : Соединение по промежуткам
Продолжительность промежутка : 40 мс. (1,00 видеокадр)
Время предзагрузки промежутка : 504 мс.
Библиотека кодирования : LAME3.99r
Настройки программы : -m s -V 4 -q 2 -lowpass 17 -b 128
pb.wtf



Скачать У них есть Родина через торрент http://s019.radikal.ru/i632/1509/aa/2858a466b6d6.png Скачать фильм У них есть Родина через торрент бесплантно в хорошем качестве Описание:По пьесе С. Михалкова "Я хочу домой".Советские представители подполковник Добрынин и майор Сорокин разыскивают на территории ... 10 10 2
Info! Золотая раздача, скачанное не засчитывается.
Торрент: Зарегистрирован [2015-09-01 19:32] · скачан: 3 раз
Статус: √ проверено
Размер: 743 MB
Как cкачать? Как скачать У них есть Родина через торрент | qTorrent

% Раздел Тема Автор DL S | L
Кино СССР [ 1.09 GB ] У них есть Родина [1949 военный DVDRip-AVC от AVP Studio] AVP Studio Скачать
1 | 0
Кино СССР [ 1.09 GB ] У них есть Родина [1949 военный DVDRip от AVP Studio] AVP Studio Скачать
1 | 0

28-11-2019 20:33  

Отключить всю рекламу на сайте

    Дорогой пользователь! Огромная просьба, поблагодарите релизера, оцените раздачу и оставьте свои комментарий, если Вы скачали У них есть Родина через торрент бесплатно! Внесите свою лепту в развитие PiratBit!
    Комментировать посты могут только пользователи прошедшие не сложную регистрацию
    Показать сообщения:    

    У них есть Родина через торрент
    Скачать бесплатно У них есть Родина
    У них есть Родина скачать торрент
    У них есть Родина смотреть онлайн
    Cкачать фильм У них есть Родина бесплатно
    У них есть Родина скачать торрент в хорошем качестве
    У них есть Родина смотреть онлайн бесплатно в хорошем качестве


    Вы не можете начинать темы
    Вы не можете отвечать на сообщения
    Вы не можете редактировать свои сообщения
    Вы не можете удалять свои сообщения
    Вы не можете голосовать в опросах
    Вы не можете прикреплять файлы к сообщениям
    Вы можете скачивать файлы