2 сезон

iTunes

1 сезон

1

iTunes

iTunes

iTunes

1 сезон

RePack

30

ИГРА 18+

pack

ВАЖНО

!!Акция!!

Alien_RageХит недели

RePack

MK11
pack

Забери бонус

RePack

jed

!!Акция!!

Alien_Rage

RePack

fifa19

RePack

Assassins Creed: Odyssey

RePack

NEED FOR SPEED™ PAYBACK

4 сезон

9 сезон

Бесстыжие 9 сезон

Все сериалы

все сериалы на PB.wtf

RePack

FAR CRY 5
  

Розыск / Сезон:1-2 / Серии:1-32 (Андрей Линич, Рустам Мосафир) [2013 г., Детектив, DVDRip] pb.wtf

Розыск через торрент pb.wtf

Размер: 14.72 GB | Добавлен: 5 лет 1 мес. назад | Торрент скачан:103 раза
Скачать  

01-09-2015 19:34 Розыск Скачать торрент  

РозыскГод выпуска: 2013
Страна: Россия ООО «АЛЬЯНС ПРОФИ»
Жанр: Детектив
Продолжительность: 32 х ~ 00:44:00

Режиссер: Андрей Линич, Рустам Мосафир
Продюссер: Александр Черняев
Сценарий: Андрей Лариков

Премьера в мире: 9 декабря 2013 В ролях: Сергей Борисов, Роман Богданов, Алексей Фаддеев, Василий Шмаков, Рамиль Сабитов, Сергей Векслер, Татьяна Косач-Брындина, Олег Доброван, Прохор Зикора, Марина Черняева, Александр Пальчиков, Елена Старостина, Алексей Зуев, Алексей Лунев, Андрей Железный, Сергей Калашников, Руслан Ягудин, Софья Максимча, Мария Буравлева, Юрий Горин, Александр Самойленко

Описание: Главный герой сериала – Денис Попов. Он возглавляет работу уголовного розыска в одном из Отделов внутренних дел Москвы. Коллеги Дениса – оперативники Лукин, Могилин и Жуков давно стали сплоченной командой и во всем поддерживают своего шефа - опытного, справедливого, талантливого сыщика. У него рука не дрогнет, нервы не сдадут, а преступник будет найден! Иногда он может сорваться, может послать, а то и врезать, но это его земля, и здесь действуют его правила. Сотрудники отдела Попова расследуют не самые «резонансные» дела; их уровень – это бытовые убийства, грабежи, разбои и кражи - то, что может случиться с каждым. Сыщики - обыкновенные, узнаваемые и не слишком счастливые в личной жизни люди, потому что главное в их жизни – розыск, и ради поиска преступников они порой совсем забывают о себе...

Качество: DVDRip
Формат: AVI
Видео кодек: XviD
Аудио кодек: AC3
Видео: Xvid 720x400, 23.98fps, 1379kbps
Аудио: Dolby AC3, 48000Hz, stereo, 96kbps
Релиз от: NovaLan
Скриншоты
скриншот  скриншот  скриншот  скриншот  скриншот  




General
Complete name : F:\РОЗЫСК 1-2\1\1 серия.avi
Format : AVI
Format/Info : Audio Video Interleave
File size : 471 MiB
Duration : 44mn 20s
Overall bit rate : 1 485 Kbps
Writing application : VirtualDubMod 1.5.10.3 | (build 2550/release)
Writing library : VirtualDubMod build 2550/release

Video
ID : 0
Format : MPEG-4 Visual
Format profile : Advanced Simple@L5
Format settings, BVOP : 2
Format settings, QPel : No
Format settings, GMC : No warppoints
Format settings, Matrix : Default (MPEG)
Muxing mode : Packed bitstream
Codec ID : XVID
Codec ID/Hint : XviD
Duration : 44mn 20s
Bit rate : 1 380 Kbps
Width : 720 pixels
Height : 400 pixels
Display aspect ratio : 16:9
Frame rate : 23.976 fps
Color space : YUV
Chroma subsampling : 4:2:0
Bit depth : 8 bits
Scan type : Progressive
Compression mode : Lossy
Bits/(Pixel*Frame) : 0.200
Stream size : 438 MiB (93%)
Writing library : XviD 1.2.1 (UTC 2008-12-04)

Audio
ID : 1
Format : AC-3
Format/Info : Audio Coding 3
Mode extension : CM (complete main)
Codec ID : 2000
Duration : 44mn 20s
Bit rate mode : Constant
Bit rate : 96.0 Kbps
Channel(s) : 2 channels
Channel positions : Front: L R
Sampling rate : 48.0 KHz
Bit depth : 16 bits
Compression mode : Lossy
Stream size : 30.4 MiB (6%)
Alignment : Split accross interleaves
Interleave, duration : 42 ms (1.00 video frame)
Interleave, preload duration : 500 ms

pb.wtf



Скачать Розыск через торрент http://pic.kartinco.top/images/11/3pw3c.jpg Скачать фильм Розыск через торрент бесплантно в хорошем качестве Описание: Главный герой сериала – Денис Попов. Он возглавляет работу уголовного розыска в одном из Отделов внутренних дел Москвы. Коллеги ... 10 10 10
Торрент: Зарегистрирован [2015-09-01 19:34] · скачан: 103 раз
Статус: √ проверено
Размер: 14.72 GB
Как cкачать? Как скачать Розыск через торрент | qTorrent

28-11-2019 20:33  

Отключить всю рекламу на сайте

    Дорогой пользователь! Огромная просьба, поблагодарите релизера, оцените раздачу и оставьте свои комментарий, если Вы скачали Розыск через торрент бесплатно! Внесите свою лепту в развитие PiratBit!
    Комментировать посты могут только пользователи прошедшие не сложную регистрацию
    Показать сообщения:    

    Розыск через торрент
    Скачать бесплатно Розыск
    Розыск скачать торрент
    Розыск смотреть онлайн
    Cкачать фильм Розыск бесплатно
    Розыск скачать торрент в хорошем качестве
    Розыск смотреть онлайн бесплатно в хорошем качестве


    Вы не можете начинать темы
    Вы не можете отвечать на сообщения
    Вы не можете редактировать свои сообщения
    Вы не можете удалять свои сообщения
    Вы не можете голосовать в опросах
    Вы не можете прикреплять файлы к сообщениям
    Вы можете скачивать файлы