2 сезон

iTunes

1 сезон

1

iTunes

iTunes

iTunes

1 сезон

RePack

30

ИГРА 18+

pack

ВАЖНО

!!Акция!!

Alien_RageХит недели

RePack

MK11
pack

Забери бонус

RePack

jed

!!Акция!!

Alien_Rage

RePack

fifa19

RePack

Assassins Creed: Odyssey

RePack

NEED FOR SPEED™ PAYBACK

4 сезон

9 сезон

Бесстыжие 9 сезон

Все сериалы

все сериалы на PB.wtf

RePack

FAR CRY 5
  

Сортировка / Triage (Данис Танович / Danis Tanovic) [2009, Франция, Испания, Ирландия, Бельгия, Драма, детектив, военный, BDRip 1080p] DVO Союз видео Sub rus + original eng pb.wtf

Сортировка через торрент pb.wtf

Размер: 9.06 GB | Добавлен: 10 лет назад | Торрент скачан:6 раз
Скачать  

05-07-2010 15:18 Сортировка Скачать торрент  

Сортировка / Triage

Год выпуска: 2009
Страна: Франция, Испания, Ирландия, Бельгия
Жанр: драма, военный
Продолжительность: 01:39:36
Перевод: Профессиональный (двухголосый закадровый) Союз видео
Cубтитры: русские
Формат субтитров: softsub (SRT)
Оригинальная аудиодорожка: английский

Режиссер: Данис Танович / Danis Tanovic
Продюссер: Tim Baish, Марк Башет, Мариэла Безуевски, ...
Сценарий: Скотт Андерсон, Данис Танович
Оператор: Симус Дизи
Композитор: Лусио Годой

Премьера в мире: 12 сентября 2009

R
-Лицам до 17 лет обязательно присутствие взрослого
Мировой рейтинг IMDB 6.70 (1 341)


В ролях: Паз Вега, Бранко Джурич, Ник Даннинг, Колин Фаррелл, Гэйл Фицпатрик, Кристофер Ли, Йен МакЭлхинни, Келли Райлли, Рис Ричи, Айлин Уолш, Мишель Хартман, Джульет Стивенсон, Каржан Шерабаяни, Мозаффар Шафейе, Джэми Сивз

Описание: Два закадычных друга, работающих фотокорреспондентами в горячих точках, готовы рисковать своими жизнями ради сенсационных материалов. Главное, не переступать ту грань, за которой уже нет возврата назад... Отправившись на очередное задание в охваченный войной Курдистан, они попадают в полевой госпиталь, где становятся свидетелями жестокой и циничной "сортировки" раненых - тяжелых "лечат" выстрелами в голову, а остальных пытаются поставить на ноги. Ошеломленные происходящим, друзья решают отложить свое возвращение домой и продолжить работу. Они еще не знают, какое тяжкое испытание им предстоит и какую страшную цену придется заплатить за свой последний репортаж...

Качество: BDRip 1080p
Формат: MKV
Видео: MPEG-4 AVC, 11.9 Мбит/с, 1920x1080, 23.976 кадр/с
Аудио 1: Аудио: Русский (AC3, 6 ch, 448 Кбит/с, 48 KHz)
Аудио 2: Английский (AC3, 6 ch, 640 Кбит/с, 48 KHz)
General
Complete name : D:\Sortirovka.2009.x264.BDRip(1080p)-Kinozal.TV-HD.mkv
Format : Matroska
File size : 9.06 GiB
Duration : 1h 39mn
Overall bit rate : 13.0 Mbps
Movie name : --SCHUMAHER--
Encoded date : UTC 2010-07-01 19:23:55
Writing application : mkvmerge v2.1.0 ('Another Place To Fall') built on Aug 19 2007 13:40:07
Writing library : libebml v0.7.7 + libmatroska v0.8.1

Video
ID : 1
Format : AVC
Format/Info : Advanced Video Codec
Format profile : High@L4.1
Format settings, CABAC : Yes
Format settings, ReFrames : 4 frames
Muxing mode : Container profile=Unknown@4.1
Codec ID : V_MPEG4/ISO/AVC
Duration : 1h 39mn
Bit rate : 11.9 Mbps
Width : 1 920 pixels
Height : 1 080 pixels
Display aspect ratio : 16:9
Frame rate : 23.976 fps
Color space : YUV
Chroma subsampling : 4:2:0
Bit depth : 8 bits
Scan type : Progressive
Bits/(Pixel*Frame) : 0.240
Stream size : 8.12 GiB (90%)
Writing library : x264 core 98 r1649 c54c47d
Encoding settings : cabac=1 / ref=4 / deblock=1:0:0 / analyse=0x3:0x113 / me=umh / subme=7 / psy=1 / psy_rd=1.00:0.00 / mixed_ref=1 / me_range=16 / chroma_me=1 / trellis=1 / 8x8dct=1 / cqm=0 / deadzone=21,11 / fast_pskip=1 / chroma_qp_offset=-2 / threads=6 / sliced_threads=0 / nr=0 / decimate=1 / interlaced=0 / constrained_intra=0 / bframes=3 / b_pyramid=2 / b_adapt=1 / b_bias=0 / direct=1 / weightb=1 / weightp=2 / keyint=250 / keyint_min=25 / scenecut=40 / intra_refresh=0 / rc_lookahead=40 / rc=2pass / mbtree=1 / bitrate=11935 / ratetol=1.0 / qcomp=0.60 / qpmin=10 / qpmax=51 / qpstep=4 / cplxblur=20.0 / qblur=0.5 / ip_ratio=1.40 / aq=1:1.00
Language : English

Audio #1
ID : 2
Format : AC-3
Format/Info : Audio Coding 3
Mode extension : CM (complete main)
Codec ID : A_AC3
Duration : 1h 39mn
Bit rate mode : Constant
Bit rate : 448 Kbps
Channel(s) : 6 channels
Channel positions : Front: L C R, Side: L R, LFE
Sampling rate : 48.0 KHz
Stream size : 319 MiB (3%)
Language : Russian

Audio #2
ID : 3
Format : AC-3
Format/Info : Audio Coding 3
Mode extension : CM (complete main)
Codec ID : A_AC3
Duration : 1h 39mn
Bit rate mode : Constant
Bit rate : 640 Kbps
Channel(s) : 6 channels
Channel positions : Front: L C R, Side: L R, LFE
Sampling rate : 48.0 KHz
Stream size : 456 MiB (5%)
Language : English

Text
ID : 4
Format : UTF-8
Codec ID : S_TEXT/UTF8
Codec ID/Info : UTF-8 Plain Text
Language : Russian





Теперь в МОИХ РАЗДАЧАХ ® "море СЕРЕБРА и ЗОЛОТА", соответственно засчитывается
либо половина закаченного
(СЕРЕБРО), либо вообще не идет в зачет скаченное (ЗОЛОТО)!




pb.wtf



Скачать Сортировка через торрент http://i8.fastpic.ru/big/2010/0705/31/7d95e143fbf8796a17787668cd383731.jpg Скачать фильм Сортировка через торрент бесплантно в хорошем качестве Описание: Два закадычных друга, работающих фотокорреспондентами в горячих точках, готовы рисковать своими жизнями ради сенсационных ... 5 10 2
Info! Золотая раздача, скачанное не засчитывается.
Торрент: Зарегистрирован [2010-07-05 15:18] · скачан: 6 раз
Статус: √ проверено
Размер: 9.06 GB
Как cкачать? Как скачать Сортировка через торрент | qTorrent

28-11-2019 20:33  

Отключить всю рекламу на сайте

    Дорогой пользователь! Огромная просьба, поблагодарите релизера, оцените раздачу и оставьте свои комментарий, если Вы скачали Сортировка через торрент бесплатно! Внесите свою лепту в развитие PiratBit!
    Комментировать посты могут только пользователи прошедшие не сложную регистрацию
    Показать сообщения:    

    Сортировка через торрент
    Скачать бесплатно Сортировка
    Сортировка скачать торрент
    Сортировка смотреть онлайн
    Cкачать фильм Сортировка бесплатно
    Сортировка скачать торрент в хорошем качестве
    Сортировка смотреть онлайн бесплатно в хорошем качестве


    Вы не можете начинать темы
    Вы не можете отвечать на сообщения
    Вы не можете редактировать свои сообщения
    Вы не можете удалять свои сообщения
    Вы не можете голосовать в опросах
    Вы не можете прикреплять файлы к сообщениям
    Вы можете скачивать файлы