Ссылка на приватное зеркало нашего сайта всего за 1$. Внимание количество ограничено!!!

2 сезон

iTunes

1 сезон

1

iTunes

iTunes

iTunes

1 сезон

RePack

30

ИГРА 18+

pack

ВАЖНО

!!Акция!!

Alien_RageХит недели

RePack

MK11
pack

Забери бонус

RePack

jed

!!Акция!!

Alien_Rage

RePack

fifa19

RePack

Assassins Creed: Odyssey

RePack

NEED FOR SPEED™ PAYBACK

4 сезон

9 сезон

Бесстыжие 9 сезон

Все сериалы

все сериалы на PB.wtf

RePack

FAR CRY 5
  

Теряя контроль / She's Lost Control (Аня Марквардт) [2014, драма, WEB-DLRip, Любительский (одноголосый) [Pashaup] pb.wtf

Теряя контроль через торрент pb.wtf

Размер: 1.43 GB | Добавлен: 5 лет 1 мес. назад | Торрент скачан:51 раз
Скачать  

02-09-2015 13:43 Теряя контроль Скачать торрент  


Теряя контроль / She's Lost Control


ИНФОРМАЦИЯ:
Год выпуска:2014
Страна: США
Жанр: драма
Продолжительность: 01:30:02
Перевод: Любительский (одноголосый) [Pashaup]
Режиссер: Аня Марквардт

В Ролях:


Брук Блум (Ronah), Марк Менчака (Johnny), Деннис Буцикарис (Dr. Alan Cassidy), Лайла Робинс (Irene), Тобиаш Сигал (Christopher), Роберт Лонгстрит (C.T.), Роксанна Дэй (Claire), Райан Хомчик (Andro), Грегори Коростишевски (Janusz Kubicek), Генри Страм (Marty Falk), Мира Лукреция Тейлор (Detective Zeleke), Майкл Медейрос (Officer Smith)

Описание:
Рона, невероятно независимая девушка, работает консультантом-сексологом в Нью-Йорке, где она учит своих клиентов тому, чего они боятся больше всего - близости. Ее привычная жизнь рушится, когда она начинает работать с новым темпераментным клиентом Джонни, и тонкая грань между профессиональной и личной близостью в современном мире начинает исчезать.

  • Мировая премьера:9 февраля 2014

    ТЕХ.ДАННЫЕ:
    Качество: WEB-DLRip
    Формат: AVI
    Видео кодек: XviD
    Аудио кодек: AC3
    Видео: XviD, 720x400 (16:9), 1788 kbps, 23,976 fps, 0,259 bpp
    Аудио: AC3 / 5.1 / 48 kHz / 384 kbps / 16 bit


    General
    Complete name : D:\Торенты\Teryaya.kontrol.2014.L1.WEB-DLRip.1.43Gb.avi
    Format : AVI
    Format/Info : Audio Video Interleave
    File size : 1.43 GiB
    Duration : 1h 30mn
    Overall bit rate : 2 271 Kbps
    Writing application : VirtualDubMod 1.5.10.2 (build 2540/release)
    Writing library : VirtualDubMod build 2540/release

    Video
    ID : 0
    Format : MPEG-4 Visual
    Format profile : Advanced Simple@L5
    Format settings, BVOP : 2
    Format settings, QPel : No
    Format settings, GMC : No warppoints
    Format settings, Matrix : Default (MPEG)
    Codec ID : XVID
    Codec ID/Hint : XviD
    Duration : 1h 30mn
    Bit rate : 1 788 Kbps
    Width : 720 pixels
    Height : 400 pixels
    Display aspect ratio : 16:9
    Frame rate : 23.976 fps
    Color space : YUV
    Chroma subsampling : 4:2:0
    Bit depth : 8 bits
    Scan type : Progressive
    Compression mode : Lossy
    Bits/(Pixel*Frame) : 0.259
    Stream size : 1.12 GiB (79%)
    Writing library : XviD 1.2.1 (UTC 2008-12-04)

    Audio
    ID : 1
    Format : AC-3
    Format/Info : Audio Coding 3
    Mode extension : CM (complete main)
    Codec ID : 2000
    Duration : 1h 30mn
    Bit rate mode : Constant
    Bit rate : 384 Kbps
    Channel(s) : 6 channels
    Channel positions : Front: L C R, Side: L R, LFE
    Sampling rate : 48.0 KHz
    Bit depth : 16 bits
    Compression mode : Lossy
    Stream size : 247 MiB (17%)
    Alignment : Split accross interleaves
    Скриншоты:


    © Оформление by Ворон
    pb.wtf



  • Скачать Теряя контроль через торрент http://pic.kartinco.top/images/6/ordi9.jpg Скачать фильм Теряя контроль через торрент бесплантно в хорошем качестве Описание: Рона, невероятно независимая девушка, работает консультантом-сексологом в Нью-Йорке, где она учит своих клиентов тому, чего они ... 10 10 3
    Торрент: Зарегистрирован [2015-09-02 13:43] · скачан: 51 раз
    Статус: T временная
    Размер: 1.43 GB
    Как cкачать? Как скачать Теряя контроль через торрент | qTorrent

    28-11-2019 20:33  

    Отключить всю рекламу на сайте

      Дорогой пользователь! Огромная просьба, поблагодарите релизера, оцените раздачу и оставьте свои комментарий, если Вы скачали Теряя контроль через торрент бесплатно! Внесите свою лепту в развитие PiratBit!
      Комментировать посты могут только пользователи прошедшие не сложную регистрацию
      Показать сообщения:    

      Теряя контроль через торрент
      Скачать бесплатно Теряя контроль
      Теряя контроль скачать торрент
      Теряя контроль смотреть онлайн
      Cкачать фильм Теряя контроль бесплатно
      Теряя контроль скачать торрент в хорошем качестве
      Теряя контроль смотреть онлайн бесплатно в хорошем качестве


      Вы не можете начинать темы
      Вы не можете отвечать на сообщения
      Вы не можете редактировать свои сообщения
      Вы не можете удалять свои сообщения
      Вы не можете голосовать в опросах
      Вы не можете прикреплять файлы к сообщениям
      Вы можете скачивать файлы