Ссылка на приватное зеркало всего за 1$. Внимание количество ограничено!!!

iTunes

iTunes

iTunes

1

iTunes

iTunes

iTunes

iTunes

iTunes

30
pack

$ от Little Big

ВАЖНО

!!Акция!!

Alien_RageХит недели

RePack

Resident Evil 21

ИГРА 18+

pack

RePack

jed

!!Акция!!

Alien_Rage

RePack

fifa19

RePack

Assassins Creed: Odyssey

RePack

NEED FOR SPEED™ PAYBACK

4 сезон

9 сезон

Бесстыжие 9 сезон

Все сериалы

все сериалы на PB.wtf

RePack

FAR CRY 5
  

Теряя контроль / She's Lost Control (Аня Марквардт) [2014, драма, WEB-DL 1080p, Любительский (одноголосый) [Pashaup] pb.wtf

Теряя контроль через торрент pb.wtf

Размер: 3.57 GB | Добавлен: 4 года 10 мес. назад | Торрент скачан:40 раз
Скачать  

02-09-2015 13:45 Теряя контроль Скачать торрент  


Теряя контроль / She's Lost Control


ИНФОРМАЦИЯ:
Год выпуска:2014
Страна: США
Жанр: драма
Продолжительность: 01:30:02
Перевод: Любительский (одноголосый) [Pashaup]
Субтитры: английские (English),
Режиссер: Аня Марквардт

В Ролях:


Брук Блум (Ronah), Марк Менчака (Johnny), Деннис Буцикарис (Dr. Alan Cassidy), Лайла Робинс (Irene), Тобиаш Сигал (Christopher), Роберт Лонгстрит (C.T.), Роксанна Дэй (Claire), Райан Хомчик (Andro), Грегори Коростишевски (Janusz Kubicek), Генри Страм (Marty Falk), Мира Лукреция Тейлор (Detective Zeleke), Майкл Медейрос (Officer Smith)

Описание:
Рона, невероятно независимая девушка, работает консультантом-сексологом в Нью-Йорке, где она учит своих клиентов тому, чего они боятся больше всего - близости. Ее привычная жизнь рушится, когда она начинает работать с новым темпераментным клиентом Джонни, и тонкая грань между профессиональной и личной близостью в современном мире начинает исчезать.

  • Мировая премьера:9 февраля 2014

    ТЕХ.ДАННЫЕ:
    Качество: WEB-DL 1080p
    Формат: MKV
    Видео кодек: AVC
    Аудио кодек: AC3
    Видео: AVC, 1920x1080 (16:9), 4791 kbps, 23,976 fps, 0,096 bpp
    Аудио №1: русский / AC3 / 5.1 / 48 kHz / 384 kbps / 16 bit ||
    Аудио №2: английский / AC3 / 5.1 / 48 kHz / 384 kbps / 16 bit


    General
    Unique ID : 195216879593966690336589095682895001661 (0x92DD67459D5C03F3BA414539722C383D)
    Complete name : D:\Торенты\Teryaya.kontrol.2014.L1.WEB-DL.1080p.mkv
    Format : Matroska
    Format version : Version 4 / Version 2
    File size : 3.57 GiB
    Duration : 1h 30mn
    Overall bit rate : 5 672 Kbps
    Encoded date : UTC 2015-09-01 16:41:48
    Writing application : mkvmerge v7.2.0 ('On Every Street') 64bit built on Sep 13 2014 15:52:10
    Writing library : libebml v1.3.0 + libmatroska v1.4.1
    Attachment : Yes

    Video
    ID : 1
    Format : AVC
    Format/Info : Advanced Video Codec
    Format profile : High@L4.0
    Format settings, CABAC : Yes
    Format settings, ReFrames : 4 frames
    Codec ID : V_MPEG4/ISO/AVC
    Duration : 1h 30mn
    Bit rate : 4 791 Kbps
    Width : 1 920 pixels
    Height : 1 080 pixels
    Display aspect ratio : 16:9
    Frame rate : 23.976 fps
    Color space : YUV
    Chroma subsampling : 4:2:0
    Bit depth : 8 bits
    Scan type : Progressive
    Bits/(Pixel*Frame) : 0.096
    Stream size : 3.01 GiB (84%)
    Title : Shes.Lost.Control.2014.1080p.WEB-DL.DD5.1.H.264-RARBG
    Language : English
    Default : Yes
    Forced : No
    Color primaries : BT.709-5, BT.1361, IEC 61966-2-4, SMPTE RP177
    Transfer characteristics : BT.709-5, BT.1361
    Matrix coefficients : BT.709-5, BT.1361, IEC 61966-2-4 709, SMPTE RP177

    Audio #1
    ID : 2
    Format : AC-3
    Format/Info : Audio Coding 3
    Mode extension : CM (complete main)
    Codec ID : A_AC3
    Duration : 1h 30mn
    Bit rate mode : Constant
    Bit rate : 384 Kbps
    Channel(s) : 6 channels
    Channel positions : Front: L C R, Side: L R, LFE
    Sampling rate : 48.0 KHz
    Bit depth : 16 bits
    Compression mode : Lossy
    Stream size : 247 MiB (7%)
    Language : Russian
    Default : Yes
    Forced : No

    Audio #2
    ID : 3
    Format : AC-3
    Format/Info : Audio Coding 3
    Mode extension : CM (complete main)
    Codec ID : A_AC3
    Duration : 1h 30mn
    Bit rate mode : Constant
    Bit rate : 384 Kbps
    Channel(s) : 6 channels
    Channel positions : Front: L C R, Side: L R, LFE
    Sampling rate : 48.0 KHz
    Bit depth : 16 bits
    Compression mode : Lossy
    Stream size : 247 MiB (7%)
    Title : Shes.Lost.Control.2014.1080p.WEB-DL.DD5.1.H.264-RARBG
    Language : English
    Default : No
    Forced : No

    Text
    ID : 4
    Format : UTF-8
    Codec ID : S_TEXT/UTF8
    Codec ID/Info : UTF-8 Plain Text
    Title : English
    Language : English
    Default : No
    Forced : No
    Скриншоты:


    © Оформление by Ворон
    pb.wtf
    !Ворон писал(а):

    http://multi-up.com/1064752 сэмпл с бюджетного рипа.



  • Скачать Теряя контроль через торрент http://pic.kartinco.top/images/6/ordi9.jpg Скачать фильм Теряя контроль через торрент бесплантно в хорошем качестве Описание: Рона, невероятно независимая девушка, работает консультантом-сексологом в Нью-Йорке, где она учит своих клиентов тому, чего они ... 10 10 2
    Торрент: Зарегистрирован [2015-09-02 13:45] · скачан: 40 раз
    Статус: T временная
    Размер: 3.57 GB
    Как cкачать? Как скачать Теряя контроль через торрент | qTorrent

    28-11-2019 20:33  

    Отключить всю рекламу на сайте

      Дорогой пользователь! Огромная просьба, поблагодарите релизера, оцените раздачу и оставьте свои комментарий, если Вы скачали Теряя контроль через торрент бесплатно! Внесите свою лепту в развитие PiratBit!
      Комментировать посты могут только пользователи прошедшие не сложную регистрацию
      Показать сообщения:    

      Теряя контроль через торрент
      Скачать бесплатно Теряя контроль
      Теряя контроль скачать торрент
      Теряя контроль смотреть онлайн
      Cкачать фильм Теряя контроль бесплатно
      Теряя контроль скачать торрент в хорошем качестве
      Теряя контроль смотреть онлайн бесплатно в хорошем качестве


      Вы не можете начинать темы
      Вы не можете отвечать на сообщения
      Вы не можете редактировать свои сообщения
      Вы не можете удалять свои сообщения
      Вы не можете голосовать в опросах
      Вы не можете прикреплять файлы к сообщениям
      Вы можете скачивать файлы