Ссылка на приватное зеркало всего за 1$. Внимание количество ограничено!!!

iTunes

iTunes

iTunes

1

iTunes

iTunes

iTunes

iTunes

iTunes

30
pack

$ от Little Big

ВАЖНО

!!Акция!!

Alien_RageХит недели

RePack

Resident Evil 21

ИГРА 18+

pack

RePack

jed

!!Акция!!

Alien_Rage

RePack

fifa19

RePack

Assassins Creed: Odyssey

RePack

NEED FOR SPEED™ PAYBACK

4 сезон

9 сезон

Бесстыжие 9 сезон

Все сериалы

все сериалы на PB.wtf

RePack

FAR CRY 5
  

Хлоя и Тео / Chloe and Theo (Эзна Сэндс) [2015, драма, WEB-DL 720p, Профессиональный (многоголосый) [Официальный звук] pb.wtf

Хлоя и Тео через торрент pb.wtf

Размер: 2.67 GB | Добавлен: 4 года 10 мес. назад | Торрент скачан:103 раза
Скачать  

02-09-2015 13:57 Хлоя и Тео Скачать торрент  


Хлоя и Тео / Chloe and Theo
««From the northern ice comes a gentler kind of hero»»

ИНФОРМАЦИЯ:
Год выпуска:2015
Страна: США, Канада
Жанр: драма
Продолжительность: 01:21:44
Перевод: Профессиональный (многоголосый) Чистый
Режиссер: Эзна Сэндс

В Ролях:


Дакота Джонсон (Chloe), Мира Сорвино (Monica), Адриан Мартинес (Actor), Лори Тан Чинн (Landlady), Кристофер Бакус (Juju Joe), Элизабет Масуччи (Female Interrogator), Ларри Кинг (Larry King), Эшли Спрингер (Tyler), Николь Зиоли (Shop Girl), Джесика Андерсон, Мишель Кэмпбелл (Central Park Girl), Брэндон Бойд (Central Park Singer)

Описание:
Эскимос Тео, из Арктики, едет в Нью-Йорк, чтобы предупредить мировых лидеров о катастрофическом влиянии глобального потепления на планете. По прибытии он встречает бездомную девушку по имени Хлоя, которая решила ему в этом помочь. Вместе они изменят мир.

  • Мировая премьера:15 апреля 2015

    ТЕХ.ДАННЫЕ:
    Качество: WEB-DL 720p
    Формат: MKV
    Видео кодек: AVC
    Аудио кодек: AC3
    Видео: AVC, 1280x544 (2.35:1), 4005 kbps, 23,976 fps, 0,240 bpp
    Аудио №1: русский / AC3 / 2.0 / 48 kHz / 192 kbps / 16 bit ||
    Аудио №2: английский / AC3 / 5.1 / 48 kHz / 384 kbps / 16 bit
    Навигация по главам: есть


    Общее
    Уникальный идентификатор : 226041329855795561288429575194539513491 (0xAA0DFA016601F4888A4BF53A4AF8D693)
    Полное имя : D:\Торенты\Hloya.i.Teo.2015.P.WEBDL.720p.mkv
    Формат : Matroska
    Версия формата : Version 4 / Version 2
    Размер файла : 2,67 Гбайт
    Продолжительность : 1 ч. 21 м.
    Общий поток : 4674 Кбит/сек
    Дата кодирования : UTC 2015-09-01 21:45:54
    Программа кодирования : mkvmerge v8.2.0 ('World of Adventure') 64bit
    Библиотека кодирования : libebml v1.3.1 + libmatroska v1.4.2

    Видео
    Идентификатор : 1
    Формат : AVC
    Формат/Информация : Advanced Video Codec
    Профиль формата : Main@L3.1
    Параметр CABAC формата : Нет
    Параметр ReFrames формата : 2 кадра
    Идентификатор кодека : V_MPEG4/ISO/AVC
    Продолжительность : 1 ч. 21 м.
    Битрейт : 4005 Кбит/сек
    Ширина : 1280 пикселей
    Высота : 544 пикселя
    Соотношение сторон : 2,35:1
    Режим частоты кадров : Постоянный
    Частота кадров : 23,976 кадра/сек
    Цветовое пространство : YUV
    Субдискретизация насыщенности : 4:2:0
    Битовая глубина : 8 бит
    Тип развёртки : Прогрессивная
    Бит/(Пиксели*Кадры) : 0.240
    Размер потока : 2,29 Гбайт (86%)
    Язык : English
    Default : Да
    Forced : Нет
    Основные цвета : BT.709
    Характеристики трансфера : BT.709
    Коэффициенты матрицы : BT.709
    colour_range : Limited

    Аудио #1
    Идентификатор : 2
    Формат : AC-3
    Формат/Информация : Audio Coding 3
    Расширение режима : CM (complete main)
    Параметр Endianness формата : Big
    Идентификатор кодека : A_AC3
    Продолжительность : 1 ч. 21 м.
    Вид битрейта : Постоянный
    Битрейт : 192 Кбит/сек
    Каналы : 2 канала
    Расположение каналов : Front: L R
    Частота : 48,0 КГц
    Битовая глубина : 16 бит
    Метод сжатия : С потерями
    Размер потока : 112 Мбайт (4%)
    Язык : Russian
    Default : Да
    Forced : Да

    Аудио #2
    Идентификатор : 3
    Формат : AC-3
    Формат/Информация : Audio Coding 3
    Расширение режима : CM (complete main)
    Параметр Endianness формата : Big
    Идентификатор кодека : A_AC3
    Продолжительность : 1 ч. 21 м.
    Вид битрейта : Постоянный
    Битрейт : 384 Кбит/сек
    Каналы : 6 каналов
    Расположение каналов : Front: L C R, Side: L R, LFE
    Частота : 48,0 КГц
    Битовая глубина : 16 бит
    Метод сжатия : С потерями
    Размер потока : 224 Мбайт (8%)
    Язык : English
    Default : Нет
    Forced : Нет

    Меню
    00:00:00.000 : en:Chapter 1
    00:24:47.000 : en:Chapter 2
    00:50:51.000 : en:Chapter 3
    01:14:29.000 : en:Chapter 4
    Скриншоты:


    © Оформление by Ворон
    pb.wtf



  • Скачать Хлоя и Тео через торрент http://pic.kartinco.top/images/6/ordi9.jpg Скачать фильм Хлоя и Тео через торрент бесплантно в хорошем качестве Описание: Эскимос Тео, из Арктики, едет в Нью-Йорк, чтобы предупредить мировых лидеров о катастрофическом влиянии глобального потепления на ... 10 10 4
    Торрент: Зарегистрирован [2015-09-02 13:57] · скачан: 103 раз
    Статус: T временная
    Размер: 2.67 GB
    Как cкачать? Как скачать Хлоя и Тео через торрент | qTorrent

    % Раздел Тема Автор DL S | L
    T Фильмы 2015 [DVDrip, WEB-DLRip, HDrip] [ 1.43 GB ] Хлоя и Тео / Chloe and Theo [2015 HDRip] MVO [Официальный звук] -Lexx- Скачать
    1 | 0
    T Фильмы 2015 (Звук TS, Cam, VO, DVO) [ 1.46 GB ] Хлоя и Тео / Chloe and Theo [2015 WEB-DLRip] DVO Ворон Скачать
    1 | 0
    T Фильмы 2015 [DVDrip, WEB-DLRip, HDrip] [ 1.37 GB ] Хлоя и Тео / Chloe and Theo [2015 WEB-DLRip Чистый Ворон Скачать
    1 | 0
    T Фильмы 2015 (Звук TS, Cam, VO, DVO) [ 751 MB ] Хлоя и Тео / Chloe and Theo [2015 WEB-DLRip] DVO Ворон Скачать
    1 | 0

    28-11-2019 20:33  

    Отключить всю рекламу на сайте

      Дорогой пользователь! Огромная просьба, поблагодарите релизера, оцените раздачу и оставьте свои комментарий, если Вы скачали Хлоя и Тео через торрент бесплатно! Внесите свою лепту в развитие PiratBit!
      Комментировать посты могут только пользователи прошедшие не сложную регистрацию
      Показать сообщения:    

      Хлоя и Тео через торрент
      Скачать бесплатно Хлоя и Тео
      Хлоя и Тео скачать торрент
      Хлоя и Тео смотреть онлайн
      Cкачать фильм Хлоя и Тео бесплатно
      Хлоя и Тео скачать торрент в хорошем качестве
      Хлоя и Тео смотреть онлайн бесплатно в хорошем качестве


      Вы не можете начинать темы
      Вы не можете отвечать на сообщения
      Вы не можете редактировать свои сообщения
      Вы не можете удалять свои сообщения
      Вы не можете голосовать в опросах
      Вы не можете прикреплять файлы к сообщениям
      Вы можете скачивать файлы