Ссылка на приватное зеркало нашего сайта всего за 1$. Внимание количество ограничено!!!

2 сезон

iTunes

1 сезон

1

iTunes

iTunes

iTunes

1 сезон

RePack

30

ИГРА 18+

pack

ВАЖНО

!!Акция!!

Alien_RageХит недели

RePack

MK11
pack

Забери бонус

RePack

jed

!!Акция!!

Alien_Rage

RePack

fifa19

RePack

Assassins Creed: Odyssey

RePack

NEED FOR SPEED™ PAYBACK

4 сезон

9 сезон

Бесстыжие 9 сезон

Все сериалы

все сериалы на PB.wtf

RePack

FAR CRY 5
  

Потерявшиеся во тьме / Lost After Dark (Йен Кесснер) [2014, ужасы, HDRip, Любительский (одноголосый) [Pashaup] pb.wtf

Потерявшиеся во тьме через торрент pb.wtf

Размер: 1.52 GB | Добавлен: 5 лет 1 мес. назад | Торрент скачан:67 раз
Скачать  

02-09-2015 14:06 Потерявшиеся во тьме Скачать торрент  


Потерявшиеся во тьме / Lost After Dark
««And you thought the '80s were dead ...»»

ИНФОРМАЦИЯ:
Год выпуска:2014
Страна: Канада
Жанр: ужасы
Продолжительность: 01:25:06
Перевод: Любительский (одноголосый) [Pashaup]
Режиссер: Йен Кесснер

В Ролях:


Сара Фишер (Laurie), Марк Виб (Junior Joad), Джесси Камачо (Tobe), Кендра Ли Тимминс (Adrienne), Дэвид Липпер (Adrienne's Father), Роберт Патрик (Mr. C), Элиз Гэтьен (Jamie), Джастин Келли (Sean), Стивен Джеймс (Wesley), Ив Харлоу (Marilyn), Лэни МакОли (Heather), Александр Кэлверт (Johnnie)

Описание:
Группа подростков решает как следует оттянуться и угоняет школьный автобус. Но они даже не подозревали, что их поездка обернется встречей с каннибалом-убийцей.

  • Мировая премьера:19 сентября 2014

    ТЕХ.ДАННЫЕ:
    Качество: HDRip
    Формат: AVI
    Видео кодек: XviD
    Аудио кодек: AC3
    Видео: XviD, 720x400 (16:9), 1999 kbps, 23,976 fps, 0,290 bpp
    Аудио: AC3 / 5.1 / 48 kHz / 448 kbps / 16 bit


    General
    Complete name : D:\Торенты\Lost.After.Dark.2014.L1.HDRip.avi
    Format : AVI
    Format/Info : Audio Video Interleave
    File size : 1.52 GiB
    Duration : 1h 25mn
    Overall bit rate : 2 557 Kbps

    Video
    ID : 0
    Format : MPEG-4 Visual
    Format profile : Advanced Simple@L5
    Format settings, BVOP : 1
    Format settings, QPel : No
    Format settings, GMC : No warppoints
    Format settings, Matrix : Default (MPEG)
    Codec ID : XVID
    Codec ID/Hint : XviD
    Duration : 1h 25mn
    Bit rate : 1 999 Kbps
    Width : 720 pixels
    Height : 400 pixels
    Display aspect ratio : 16:9
    Frame rate : 23.976 fps
    Color space : YUV
    Chroma subsampling : 4:2:0
    Bit depth : 8 bits
    Scan type : Progressive
    Compression mode : Lossy
    Bits/(Pixel*Frame) : 0.290
    Stream size : 1.19 GiB (78%)
    Writing library : XviD 1.2.1 (UTC 2008-12-04)

    Audio
    ID : 1
    Format : AC-3
    Format/Info : Audio Coding 3
    Mode extension : CM (complete main)
    Codec ID : 2000
    Duration : 1h 25mn
    Bit rate mode : Constant
    Bit rate : 448 Kbps
    Channel(s) : 6 channels
    Channel positions : Front: L C R, Side: L R, LFE
    Sampling rate : 48.0 KHz
    Bit depth : 16 bits
    Compression mode : Lossy
    Stream size : 273 MiB (18%)
    Alignment : Aligned on interleaves
    Title : Lost.After.Dark.2014.x264.BDRip.1080p.NovaLan - [0] Russian
    Скриншоты:


    © Оформление by Ворон
    pb.wtf



  • Скачать Потерявшиеся во тьме через торрент http://pic.kartinco.top/images/6/ordi9.jpg Скачать фильм Потерявшиеся во тьме через торрент бесплантно в хорошем качестве Описание: Группа подростков решает как следует оттянуться и угоняет школьный автобус. Но они даже не подозревали, что их поездка обернется ... 5.5 10 2
    Торрент: Зарегистрирован [2015-09-02 14:06] · скачан: 67 раз
    Статус: √ проверено
    Размер: 1.52 GB
    Как cкачать? Как скачать Потерявшиеся во тьме через торрент | qTorrent

    % Раздел Тема Автор DL S | L
    Фильмы [HD 720p, 1080p] (Звук Cam, VO, DVO) [ 8.81 GB ] Потерявшиеся во тьме / Lost After Dark [2014 BDRip 1080p Любительский [Pashaup] Ворон Скачать
    1 | 0
    Фильмы без перевода [ 1.41 GB ] Потерявшиеся во тьме / Lost After Dark [2015 BDRip Оригинал] makarevich Скачать
    1 | 0

    28-11-2019 20:33  

    Отключить всю рекламу на сайте

      Дорогой пользователь! Огромная просьба, поблагодарите релизера, оцените раздачу и оставьте свои комментарий, если Вы скачали Потерявшиеся во тьме через торрент бесплатно! Внесите свою лепту в развитие PiratBit!
      Комментировать посты могут только пользователи прошедшие не сложную регистрацию
      Показать сообщения:    

      Потерявшиеся во тьме через торрент
      Скачать бесплатно Потерявшиеся во тьме
      Потерявшиеся во тьме скачать торрент
      Потерявшиеся во тьме смотреть онлайн
      Cкачать фильм Потерявшиеся во тьме бесплатно
      Потерявшиеся во тьме скачать торрент в хорошем качестве
      Потерявшиеся во тьме смотреть онлайн бесплатно в хорошем качестве


      Вы не можете начинать темы
      Вы не можете отвечать на сообщения
      Вы не можете редактировать свои сообщения
      Вы не можете удалять свои сообщения
      Вы не можете голосовать в опросах
      Вы не можете прикреплять файлы к сообщениям
      Вы можете скачивать файлы