Ссылка на приватное зеркало всего за 1$. Внимание количество ограничено!!!

OK

1+1

iTunes

мы

OK

1

WEB-DLRip

Джокер

Пифагор

Ведьмак / The Witcher сериал

iTunes

ПШазам

ОК

Оно 2

iTunes

30
pack

Вам бонус

ВАЖНО

!!Акция!!

Alien_RageХит недели

RePack

Resident Evil 21

ИГРА 18+

pack

RePack

jed

RePack

fifa19

RePack

Assassins Creed: Odyssey

RePack

NEED FOR SPEED™ PAYBACK

4 сезон

9 сезон

Бесстыжие 9 сезон

Все сериалы

все сериалы на PB.wtf

RePack

FAR CRY 5
  

Хлоя и Тео / Chloe and Theo (Эзна Сэндс) [2015, драма, WEB-DLRip, Профессиональный (многоголосый) Чистый pb.wtf

Хлоя и Тео через торрент pb.wtf

Размер: 1.37 GB | Добавлен: 4 года 4 мес. назад | Торрент скачан:373 раза
Скачать  

02-09-2015 14:11 Хлоя и Тео Скачать торрент  


Хлоя и Тео / Chloe and Theo
««From the northern ice comes a gentler kind of hero»»

ИНФОРМАЦИЯ:
Год выпуска:2015
Страна: США, Канада
Жанр: драма
Продолжительность: 01:21:43
Перевод: Профессиональный (многоголосый)Чистый
Режиссер: Эзна Сэндс

В Ролях:


Дакота Джонсон (Chloe), Мира Сорвино (Monica), Адриан Мартинес (Actor), Лори Тан Чинн (Landlady), Кристофер Бакус (Juju Joe), Элизабет Масуччи (Female Interrogator), Ларри Кинг (Larry King), Эшли Спрингер (Tyler), Николь Зиоли (Shop Girl), Джесика Андерсон, Мишель Кэмпбелл (Central Park Girl), Брэндон Бойд (Central Park Singer)

Описание:
Эскимос Тео, из Арктики, едет в Нью-Йорк, чтобы предупредить мировых лидеров о катастрофическом влиянии глобального потепления на планете. По прибытии он встречает бездомную девушку по имени Хлоя, которая решила ему в этом помочь. Вместе они изменят мир.

  • Мировая премьера:15 апреля 2015

    ТЕХ.ДАННЫЕ:
    Качество: WEB-DLRip
    Формат: AVI
    Видео кодек: XviD
    Аудио кодек: AC3
    Видео: XviD, 720x304 (2.35:1), 1909 kbps, 23,976 fps, 0,364 bpp
    Аудио №1: AC3 / 2.0 / 48 kHz / 192 kbps / Russian
    Аудио №2: AC3 / 2.0 / 48 kHz / 192 kbps / English


    General
    Complete name : D:\Торенты\Chloe and Theo.2015.P.WEBDLRip.avi
    Format : AVI
    Format/Info : Audio Video Interleave
    File size : 1.37 GiB
    Duration : 1h 21mn
    Overall bit rate : 2 399 Kbps
    Writing application : VirtualDubMod 1.5.10.2 (build 2540/release)
    Writing library : VirtualDubMod build 2540/release

    Video
    ID : 0
    Format : MPEG-4 Visual
    Format profile : Advanced Simple@L5
    Format settings, BVOP : 2
    Format settings, QPel : No
    Format settings, GMC : No warppoints
    Format settings, Matrix : Default (MPEG)
    Codec ID : XVID
    Codec ID/Hint : XviD
    Duration : 1h 21mn
    Bit rate : 1 909 Kbps
    Width : 720 pixels
    Height : 304 pixels
    Display aspect ratio : 2.35:1
    Frame rate : 23.976 fps
    Color space : YUV
    Chroma subsampling : 4:2:0
    Bit depth : 8 bits
    Scan type : Progressive
    Compression mode : Lossy
    Bits/(Pixel*Frame) : 0.364
    Stream size : 1.09 GiB (80%)
    Writing library : XviD 1.2.1 (UTC 2008-12-04)

    Audio #1
    ID : 1
    Format : AC-3
    Format/Info : Audio Coding 3
    Mode extension : CM (complete main)
    Codec ID : 2000
    Duration : 1h 21mn
    Bit rate mode : Constant
    Bit rate : 192 Kbps
    Channel(s) : 2 channels
    Channel positions : Front: L R
    Sampling rate : 48.0 KHz
    Bit depth : 16 bits
    Compression mode : Lossy
    Stream size : 112 MiB (8%)
    Alignment : Split accross interleaves

    Audio #2
    ID : 2
    Format : AC-3
    Format/Info : Audio Coding 3
    Mode extension : CM (complete main)
    Codec ID : 2000
    Duration : 1h 21mn
    Bit rate mode : Constant
    Bit rate : 192 Kbps
    Channel(s) : 2 channels
    Channel positions : Front: L R
    Sampling rate : 48.0 KHz
    Bit depth : 16 bits
    Compression mode : Lossy
    Stream size : 112 MiB (8%)
    Alignment : Split accross interleaves
    Скриншоты:


    © Оформление by Ворон
    pb.wtf



  • Скачать Хлоя и Тео через торрент http://pic.kartinco.top/images/6/ordi9.jpg Скачать фильм Хлоя и Тео через торрент бесплантно в хорошем качестве Описание: Эскимос Тео, из Арктики, едет в Нью-Йорк, чтобы предупредить мировых лидеров о катастрофическом влиянии глобального потепления на ... 9.8 10 17
    Торрент: Зарегистрирован [2015-09-02 14:12] · скачан: 373 раз
    Статус: T временная
    Размер: 1.37 GB
    Как cкачать? Как скачать Хлоя и Тео через торрент | qTorrent

    28-11-2019 20:33  

    Отключить всю рекламу на сайте


      Дорогой пользователь! Огромная просьба, поблагодарите релизера, оцените раздачу и оставьте свои комментарий, если Вы скачали Хлоя и Тео через торрент бесплатно! Внесите свою лепту в развитие PiratBit!
      Комментировать посты могут только пользователи прошедшие не сложную регистрацию
      Показать сообщения:    

      Хлоя и Тео через торрент
      Скачать бесплатно Хлоя и Тео
      Хлоя и Тео скачать торрент
      Хлоя и Тео смотреть онлайн
      Cкачать фильм Хлоя и Тео бесплатно
      Хлоя и Тео скачать торрент в хорошем качестве
      Хлоя и Тео смотреть онлайн бесплатно в хорошем качестве


      Вы не можете начинать темы
      Вы не можете отвечать на сообщения
      Вы не можете редактировать свои сообщения
      Вы не можете удалять свои сообщения
      Вы не можете голосовать в опросах
      Вы не можете прикреплять файлы к сообщениям
      Вы можете скачивать файлы