Ссылка на приватное зеркало всего за 1$. Внимание количество ограничено!!!

iTunes

iTunes

iTunes

1

iTunes

iTunes

iTunes

iTunes

iTunes

30
pack

$ от Little Big

ВАЖНО

!!Акция!!

Alien_RageХит недели

RePack

Resident Evil 21

ИГРА 18+

pack

RePack

jed

!!Акция!!

Alien_Rage

RePack

fifa19

RePack

Assassins Creed: Odyssey

RePack

NEED FOR SPEED™ PAYBACK

4 сезон

9 сезон

Бесстыжие 9 сезон

Все сериалы

все сериалы на PB.wtf

RePack

FAR CRY 5
  

Турбо пацан / Turbo Kid (Франсуа Симар, Anouk Whissell, Yoann-Karl Whissell) [2015, фантастика, боевик, WEB-DL 720p, Любительский (двухголосый)[Мтрск/StacyLagler] pb.wtf

Турбо пацан через торрент pb.wtf

Размер: 2.99 GB | Добавлен: 4 года 10 мес. назад | Торрент скачан:258 раз
Скачать  

02-09-2015 14:15 Турбо пацан Скачать торрент  


Турбо пацан / Turbo Kid
««Coming Soon To a Wasteland Near You!»»

ИНФОРМАЦИЯ:
Год выпуска:2015
Страна: Канада, Новая Зеландия
Жанр: фантастика, боевик
Продолжительность: 01:32:44
Перевод: Любительский (двухголосый)[Мтрск/StacyLagler]
Режиссер: Франсуа Симар, Anouk Whissell, Yoann-Karl Whissell

В Ролях:


Манро Чэмберс (The Kid), Лоранс Лебёф (Apple), Майкл Айронсайд (Zeus), Эдвин Райт (Skeletron), Аарон Джеффри (Frederic), Романо Орцари (Bagu), Orphée Ladouceur (Female Guard), Steeve Léonard (Scout), Ив Корбелл (Turbo Général), Ивэн Манукян (Young the kid), Anouk Whissell (The Mother), Франсуа Симар (The Father)

Описание:
Примерив костюм своего любимого героя комиксов, парнишка должен спасти новую странноватую подружку и положить конец правлению безумного тирана на просторах пост-апокалиптической пустоши.

  • Мировая премьера:26 января 2015

    ТЕХ.ДАННЫЕ:
    Качество: WEB-DL 720p
    Формат: MKV
    Видео кодек: AVC
    Аудио кодек: AC3
    Видео: AVC, 1280x532 (2.40:1), 3953 kbps, 23,976 fps, 0,242 bpp
    Аудио №1: русский / AC3 / 2.0 / 48 kHz / 192 kbps / 16 bit ||
    Аудио №2: английский / AC3 / 5.1 / 48 kHz / 384 kbps / 16 bit
    Навигация по главам: есть


    General
    Unique ID : 203077019566202598851495565217295363490 (0x98C73617C0D6A6F58FF2439AB919EDA2)
    Complete name : D:\Торенты\Turbo.Kid.2015.L2.WEB-DL.720p.mkv
    Format : Matroska
    Format version : Version 4 / Version 2
    File size : 2.99 GiB
    Duration : 1h 32mn
    Overall bit rate : 4 621 Kbps
    Encoded date : UTC 2015-09-02 09:51:16
    Writing application : mkvmerge v6.1.0 ('Old Devil') built on Mar 4 2013 09:10:42
    Writing library : libebml v1.3.0 + libmatroska v1.4.0

    Video
    ID : 1
    Format : AVC
    Format/Info : Advanced Video Codec
    Format profile : Main@L3.1
    Format settings, CABAC : No
    Format settings, ReFrames : 2 frames
    Codec ID : V_MPEG4/ISO/AVC
    Duration : 1h 32mn
    Bit rate : 3 953 Kbps
    Width : 1 280 pixels
    Height : 532 pixels
    Display aspect ratio : 2.40:1
    Frame rate : 23.976 fps
    Color space : YUV
    Chroma subsampling : 4:2:0
    Bit depth : 8 bits
    Scan type : Progressive
    Bits/(Pixel*Frame) : 0.242
    Stream size : 2.56 GiB (86%)
    Language : English
    Default : Yes
    Forced : No
    Color primaries : BT.709-5, BT.1361, IEC 61966-2-4, SMPTE RP177
    Transfer characteristics : BT.709-5, BT.1361
    Matrix coefficients : BT.709-5, BT.1361, IEC 61966-2-4 709, SMPTE RP177

    Audio #1
    ID : 2
    Format : AC-3
    Format/Info : Audio Coding 3
    Mode extension : CM (complete main)
    Codec ID : A_AC3
    Duration : 1h 32mn
    Bit rate mode : Constant
    Bit rate : 192 Kbps
    Channel(s) : 2 channels
    Channel positions : Front: L R
    Sampling rate : 48.0 KHz
    Bit depth : 16 bits
    Compression mode : Lossy
    Stream size : 127 MiB (4%)
    Language : Russian
    Default : Yes
    Forced : No

    Audio #2
    ID : 3
    Format : AC-3
    Format/Info : Audio Coding 3
    Mode extension : CM (complete main)
    Codec ID : A_AC3
    Duration : 1h 32mn
    Bit rate mode : Constant
    Bit rate : 384 Kbps
    Channel(s) : 6 channels
    Channel positions : Front: L C R, Side: L R, LFE
    Sampling rate : 48.0 KHz
    Bit depth : 16 bits
    Compression mode : Lossy
    Stream size : 255 MiB (8%)
    Language : English
    Default : No
    Forced : No

    Menu
    00:00:00.000 : en:Chapter 01
    00:09:39.000 : en:Chapter 02
    00:20:17.000 : en:Chapter 03
    00:30:39.000 : en:Chapter 04
    00:41:01.000 : en:Chapter 05
    00:56:22.000 : en:Chapter 06
    01:09:09.000 : en:Chapter 07
    01:20:01.000 : en:Chapter 08
    01:28:10.000 : en:End Credits
    Скриншоты:


    © Оформление by Ворон
    pb.wtf
    !Ворон писал(а):

    https://yadi.sk/i/0w5qWSjnip5GE сэмпл с бюджетного рипа.



  • Скачать Турбо пацан через торрент http://pic.kartinco.top/images/6/ordi9.jpg Скачать фильм Турбо пацан через торрент бесплантно в хорошем качестве Описание: Примерив костюм своего любимого героя комиксов, парнишка должен спасти новую странноватую подружку и положить конец правлению ... 8.9 10 12
    Торрент: Зарегистрирован [2015-09-02 14:15] · скачан: 258 раз
    Статус: T временная
    Размер: 2.99 GB
    Как cкачать? Как скачать Турбо пацан через торрент | qTorrent

    % Раздел Тема Автор DL S | L
    Фильмы (HD 720p, 1080p) (48-60 fps) [ 8.1 GB ] Турбо пацан / Turbo Kid [2015 BDRip 720p by mimok AVO] 48fps mimok Скачать
    2 | 0
    Фильмы (Blu-ray, BD-Remux, HDDVD) [ 30.82 GB ] Турбо пацан / Turbo Kid [2015 Blu-Ray 1080p] SPA Transfer / AVO Russian Mafia Скачать
    1 | 0
    Фильмы [HD 720p, 1080p] (Хороший звук DUB, MVO) [ 4.37 GB ] Турбо пацан / Turbo Kid [2015 BDRip 720p] AVO [Дмитрий Есарев] potroks Скачать
    1 | 0
    Фильмы с авторской озвучкой [ 1.46 GB ] Турбо пацан / Turbo Kid [2015 BDRip] AVO [Дмитрий Есарев] Twi7ter Скачать
    2 | 0
    Фильмы с авторской озвучкой [ 2.18 GB ] Турбо пацан / Turbo Kid [2015 BDRip-AVC] AVO [Дмитрий Есарев] potroks Скачать
    1 | 0
    Фильмы с авторской озвучкой [ 1.46 GB ] Турбо пацан / Turbo Kid [2015 BDRip-AVC] AVO [Дмитрий Есарев] potroks Скачать
    1 | 0
    Фильмы 2015 (Звук TS, Cam, VO, DVO) [ 1.45 GB ] Турбо Пацан / Turbo Kid [2015 WEB-DLRip] Любительский [Мтрск & StacyLagler] diletant Скачать
    1 | 0

    28-11-2019 20:33  

    Отключить всю рекламу на сайте

    02-09-2015 15:02 Турбо пацан Скачать торрент  

    турбо отзыв бы...pb.wtf



    02-09-2015 16:43 Турбо пацан Скачать торрент  

    Чую, что фильм ТУРБОХЛАМpb.wtf



    02-09-2015 16:54 Турбо пацан Скачать торрент  

    kpuctaluk писал(а):

    турбо отзыв бы...

    DimusZ писал(а):

    Чую, что фильм ТУРБОХЛАМ

    sarcastic sarcasticpb.wtf



    02-09-2015 17:45 Турбо пацан Скачать торрент  

    смотрел сегодня.
    скажем так, это трэш для детей.
    есть любовная история, история суперчувака и суперзлодея, есть просто переигрывающий небритый крутой чувак, история пацана становящегося суперчуваком.
    ну конечно и основной атрибут любого трэша - фонтаны кровищи и кишек. притом, "фонтаны", в прямом смысле.

    фильм довольно легко смотрится, хоть рейтинг слегка завышен.
    но фильмец на один раз, бюджет или режисер подкачали.pb.wtf



    02-09-2015 19:40 Турбо пацан Скачать торрент  

    смотрел с перемоткой, останавливался на сценах дракpb.wtf



    03-09-2015 01:28 Турбо пацан Скачать торрент  

    судя по трейлеру фильм явно не для детей, а кто из взрослых такое уг смотреть будет непонятно.pb.wtf



    03-09-2015 04:58 Турбо пацан Скачать торрент  

    аааааааааа жесть аааааааааааpb.wtf



      Дорогой пользователь! Огромная просьба, поблагодарите релизера, оцените раздачу и оставьте свои комментарий, если Вы скачали Турбо пацан через торрент бесплатно! Внесите свою лепту в развитие PiratBit!
      Комментировать посты могут только пользователи прошедшие не сложную регистрацию
      Показать сообщения:    

      Турбо пацан через торрент
      Скачать бесплатно Турбо пацан
      Турбо пацан скачать торрент
      Турбо пацан смотреть онлайн
      Cкачать фильм Турбо пацан бесплатно
      Турбо пацан скачать торрент в хорошем качестве
      Турбо пацан смотреть онлайн бесплатно в хорошем качестве


      Вы не можете начинать темы
      Вы не можете отвечать на сообщения
      Вы не можете редактировать свои сообщения
      Вы не можете удалять свои сообщения
      Вы не можете голосовать в опросах
      Вы не можете прикреплять файлы к сообщениям
      Вы можете скачивать файлы