Ссылка на приватное зеркало всего за 1$. Внимание количество ограничено!!!

iTunes

iTunes

iTunes

1

iTunes

iTunes

iTunes

iTunes

iTunes

30
pack

$ от Little Big

ВАЖНО

!!Акция!!

Alien_RageХит недели

RePack

Resident Evil 21

ИГРА 18+

pack

RePack

jed

!!Акция!!

Alien_Rage

RePack

fifa19

RePack

Assassins Creed: Odyssey

RePack

NEED FOR SPEED™ PAYBACK

4 сезон

9 сезон

Бесстыжие 9 сезон

Все сериалы

все сериалы на PB.wtf

RePack

FAR CRY 5
  

Страдающий амнезией / Amnesiac (Майкл Полиш) [2015, ужасы, триллер, драма, WEBRip 720p, Любительский (двухголосый)(datynet & Galina Vasyukova) pb.wtf

Страдающий амнезией через торрент pb.wtf

Размер: 2.9 GB | Добавлен: 4 года 10 мес. назад | Торрент скачан:100 раз
Скачать  

02-09-2015 15:12 Страдающий амнезией Скачать торрент  


Страдающий амнезией / Amnesiac


ИНФОРМАЦИЯ:
Год выпуска:2015
Страна: США
Жанр: ужасы, триллер, драма, детектив
Продолжительность: 01:24:30
Перевод: Любительский (двухголосый)(datynet & Galina Vasyukova)
Режиссер: Майкл Полиш

В Ролях:


Кейт Босворт (Woman), Уэс Бентли (Man), Оливия Роуз Кигэн (Audrey), Шэшони Холл (Detective), Ричард Рили (Postman), Патрик Бошо (Doctor), Миа Баррон (Officer Rogers)

Описание:
История о человеке, который просыпается в постели с потерей памяти, в результате несчастного случая.Он начинают подозревать, что его жена, может вовсе не его настоящая жена. И что паутина лжи и обмана окутала дом, в котором он превратился в заключенного.

  • Мировая премьера:14 августа 2015

    ТЕХ.ДАННЫЕ:
    Качество: WEBRip 720p
    Формат: MKV
    Видео кодек: XviD
    Аудио кодек: AC3
    Видео: XviD, 1280x536 (2.40:1), 4241 kbps, 23,976 fps, 0,258 bpp
    Аудио №1: русский / AC3 / 2.0 / 48 kHz / 192 kbps / 16 bit ||
    Аудио №2: английский / AC3 / 5.1 / 48 kHz / 384 kbps / 16 bit


    General
    Unique ID : 237646492174523920796819832651761956767 (0xB2C90CAF07C0FE9F8BBC45452479B79F)
    Complete name : D:\Торенты\Amnesiac.2015.720p.WEBRip.mkv
    Format : Matroska
    Format version : Version 4 / Version 2
    File size : 2.90 GiB
    Duration : 1h 24mn
    Overall bit rate : 4 915 Kbps
    Encoded date : UTC 2015-09-02 13:00:31
    Writing application : mkvmerge v6.9.1 ('Blue Panther') 64bit built on Apr 18 2014 18:23:38
    Writing library : libebml v1.3.0 + libmatroska v1.4.1

    Video
    ID : 1
    Format : MPEG-4 Visual
    Format profile : Simple@L5
    Format settings, BVOP : No
    Format settings, QPel : No
    Format settings, GMC : No warppoints
    Format settings, Matrix : Default (H.263)
    Codec ID : XVID
    Codec ID/Hint : XviD
    Duration : 1h 24mn
    Bit rate : 4 242 Kbps
    Width : 1 280 pixels
    Height : 536 pixels
    Display aspect ratio : 2.40:1
    Original display aspect ratio : 2.40:1
    Frame rate : 23.976 fps
    Color space : YUV
    Chroma subsampling : 4:2:0
    Bit depth : 8 bits
    Scan type : Progressive
    Compression mode : Lossy
    Bits/(Pixel*Frame) : 0.258
    Stream size : 2.50 GiB (86%)
    Writing library : Lavc56.13.100
    Language : English
    Default : Yes
    Forced : No

    Audio #1
    ID : 2
    Format : AC-3
    Format/Info : Audio Coding 3
    Mode extension : CM (complete main)
    Codec ID : A_AC3
    Duration : 1h 24mn
    Bit rate mode : Constant
    Bit rate : 192 Kbps
    Channel(s) : 2 channels
    Channel positions : Front: L R
    Sampling rate : 48.0 KHz
    Bit depth : 16 bits
    Compression mode : Lossy
    Stream size : 116 MiB (4%)
    Title : Galina Vasyukova & datynet
    Language : Russian
    Default : Yes
    Forced : No

    Audio #2
    ID : 3
    Format : AC-3
    Format/Info : Audio Coding 3
    Mode extension : CM (complete main)
    Codec ID : A_AC3
    Duration : 1h 24mn
    Bit rate mode : Constant
    Bit rate : 384 Kbps
    Channel(s) : 6 channels
    Channel positions : Front: L C R, Side: L R, LFE
    Sampling rate : 48.0 KHz
    Bit depth : 16 bits
    Compression mode : Lossy
    Stream size : 232 MiB (8%)
    Title : original
    Language : English
    Default : No
    Forced : No
    Скриншоты:


    © Оформление by Ворон
    pb.wtf



  • Скачать Страдающий амнезией через торрент http://pic.kartinco.top/images/6/ordi9.jpg Скачать фильм Страдающий амнезией через торрент бесплантно в хорошем качестве Описание: История о человеке, который просыпается в постели с потерей памяти, в результате несчастного случая.Он начинают подозревать, что ... 9.8 10 11
    Торрент: Зарегистрирован [2015-09-02 15:12] · скачан: 100 раз
    Статус: T временная
    Размер: 2.9 GB
    Как cкачать? Как скачать Страдающий амнезией через торрент | qTorrent

    % Раздел Тема Автор DL S | L
    T Фильмы 2015 (Звук TS, Cam, VO, DVO) [ 1.46 GB ] Страдающий амнезией / Amnesiac [2015 BDRip Любительский [datynet & Galina Vasyukova] Twi7ter Скачать
    1 | 0
    T Фильмы 2015 (Звук TS, Cam, VO, DVO) [ 1.28 GB ] Страдающий амнезией / Amnesiac [2015 WEB-DLRip Любительский [datynet & Galina Vasyukova] Ворон Скачать
    1 | 0

    28-11-2019 20:33  

    Отключить всю рекламу на сайте

      Дорогой пользователь! Огромная просьба, поблагодарите релизера, оцените раздачу и оставьте свои комментарий, если Вы скачали Страдающий амнезией через торрент бесплатно! Внесите свою лепту в развитие PiratBit!
      Комментировать посты могут только пользователи прошедшие не сложную регистрацию
      Показать сообщения:    

      Страдающий амнезией через торрент
      Скачать бесплатно Страдающий амнезией
      Страдающий амнезией скачать торрент
      Страдающий амнезией смотреть онлайн
      Cкачать фильм Страдающий амнезией бесплатно
      Страдающий амнезией скачать торрент в хорошем качестве
      Страдающий амнезией смотреть онлайн бесплатно в хорошем качестве


      Вы не можете начинать темы
      Вы не можете отвечать на сообщения
      Вы не можете редактировать свои сообщения
      Вы не можете удалять свои сообщения
      Вы не можете голосовать в опросах
      Вы не можете прикреплять файлы к сообщениям
      Вы можете скачивать файлы