Ссылка на приватное зеркало всего за 1$. Внимание количество ограничено!!!

iTunes

iTunes

iTunes

1

iTunes

iTunes

iTunes

WEBRip

iTunes

30
pack

$ от Little Big

ВАЖНО

!!Акция!!

Alien_RageХит недели

RePack

Resident Evil 21

ИГРА 18+

pack

RePack

jed

!!Акция!!

Alien_Rage

RePack

fifa19

RePack

Assassins Creed: Odyssey

RePack

NEED FOR SPEED™ PAYBACK

4 сезон

9 сезон

Бесстыжие 9 сезон

Все сериалы

все сериалы на PB.wtf

RePack

FAR CRY 5
  

Левша / Southpaw (Антуан Фукуа) [2015 г., драма, спорт, боевик, триллер, WEB-DLRip, Дубляж "iTunes"] pb.wtf

Левша через торрент pb.wtf

Размер: 2.19 GB | Добавлен: 4 года 11 мес. назад | Торрент скачан:424 раза
Скачать  

02-09-2015 18:07 Левша Скачать торрент  

Левша / Southpaw
Год выпуска: 2015
Страна: США / Escape Artists, Fuqua Films, Riche Productions
Жанр: драма, спорт, боевик, триллер
Продолжительность: 01:58:36
Перевод: Дубляж (iTunes)

Режиссер: Антуан Фукуа

IMDB 7.70 (32 166)


В ролях: Джейк Джилленхол, Рэйчел МакАдамс, Форест Уитакер, Уна Лоуренс, Фифти Сент, Скайлан Брукс, Наоми Харрис, Виктор Ортис, Бо Напп, Мигель Гомес

Описание: У боксера Билли Хоупа все было прекрасно: звание чемпиона, красавица-жена и любимая дочка. Но фортуна отворачивается от него: при трагических обстоятельствах погибает любимая жена, дисквалификация на ринге, нулевые доходы, суд лишает его родительских прав... Хоуп должен отстоять звание чемпиона и вернуть дочь. Есть ли у Хоупа шансы на победу? Все решит его знаменитый хук левой...

Качество: WEB-DLRip
Формат: AVI
Видео кодек: XviD
Аудио кодек: AC3
Видео: 720x304 (2.37:1), 25 fps, XviD build 50 ~2254 kbps avg, 0.41 bit/pixel
Аудио: 48 kHz, AC3 Dolby Digital, 3/2 (L,C,R,l,r) + LFE ch, ~384 kbps

Общее
Полное имя : F:\кино\Левша.2015.WEB-DLRip.avi
Формат : AVI
Формат/Информация : Audio Video Interleave
Профиль формата : OpenDML
Размер файла : 2,19 Гбайт
Продолжительность : 1 ч. 58 м.
Общий поток : 2645 Кбит/сек
Программа кодирования : VirtualDubMod 1.5.10.3 | www.virtualdub-fr.org || (build 2550/release)
Библиотека кодирования : VirtualDubMod build 2550/release

Видео
Идентификатор : 0
Формат : MPEG-4 Visual
Профиль формата : Advanced Simple@L5
Параметр BVOP формата : 2
Параметр QPel формата : Нет
Параметр GMC формата : Без точки перехода
Параметр матрицы формата : Default (H.263)
Идентификатор кодека : XVID
Идентификатор кодека/Подсказка : XviD
Продолжительность : 1 ч. 58 м.
Битрейт : 2249 Кбит/сек
Ширина : 720 пикселей
Высота : 304 пикселя
Соотношение сторон : 2,35:1
Частота кадров : 25,000 кадров/сек
Цветовое пространство : YUV
Субдискретизация насыщенности : 4:2:0
Битовая глубина : 8 бит
Тип развёртки : Прогрессивная
Метод сжатия : С потерями
Бит/(Пиксели*Кадры) : 0.411
Размер потока : 1,86 Гбайт (85%)
Библиотека кодирования : XviD 1.2.1 (UTC 2008-12-04)

Аудио
Идентификатор : 1
Формат : AC-3
Формат/Информация : Audio Coding 3
Расширение режима : CM (complete main)
Параметр Endianness формата : Big
Идентификатор кодека : 2000
Продолжительность : 1 ч. 58 м.
Вид битрейта : Постоянный
Битрейт : 384 Кбит/сек
Каналы : 6 каналов
Расположение каналов : Front: L C R, Side: L R, LFE
Частота : 48,0 КГц
Метод сжатия : С потерями
Размер потока : 326 Мбайт (15%)
Выравнивание : Разделение по промежуткам
Продолжительность промежутка : 40 мс. (1,00 видеокадр)
Время предзагрузки промежутка : 500 мс.

pb.wtf



Скачать Левша через торрент http://pic1.kartinco.top/images/10/wcffz.jpg Скачать фильм Левша через торрент бесплантно в хорошем качестве Описание: У боксера Билли Хоупа все было прекрасно: звание чемпиона, красавица-жена и любимая дочка. Но фортуна отворачивается от него: при ... 8.5 10 16
Торрент: Зарегистрирован [2015-09-02 18:07] · скачан: 424 раз
Статус: √ проверено
Размер: 2.19 GB
Как cкачать? Как скачать Левша через торрент | qTorrent

% Раздел Тема Автор DL S | L
Фильмы (Blu-ray, BD-Remux, HDDVD) [ 27.47 GB ] Левша / Southpaw [2015 BD Remux Pavlin Скачать
1 | 0
Фильмы 2015 [DVDrip, WEB-DLRip, HDrip] [ 1.46 GB ] Левша / Southpaw [2015 BDRip] DUB Twi7ter Скачать
1 | 0
Фильмы 2015 [DVDrip, WEB-DLRip, HDrip] [ 2.18 GB ] Левша / Southpaw [2015 BDRip-AVC от sokol_ok] DUB sokol_ok Скачать
2 | 0
Фильмы [HD 720p, 1080p] (Хороший звук DUB, MVO) [ 7.9 GB ] Левша / Southpaw [2015 BDRip 720p] DUB AVO _denis_100 Скачать
1 | 0
Фильмы 2015 [DVDrip, WEB-DLRip, HDrip] [ 1.45 GB ] Левша / Southpaw [2015 BDRip-AVC от sokol_ok] DUB sokol_ok Скачать
2 | 0
Фильмы 2015 [DVDrip, WEB-DLRip, HDrip] [ 2.18 GB ] Левша / Southpaw [2015 BDRip-AVC] DUB potroks Скачать
1 | 0
Фильмы (WEB-DL 720p, 1080p) [ 3.69 GB ] Левша / Southpaw [2015 WEB-DL 720p Дублированное Ворон Скачать
1 | 0

28-11-2019 20:33  

Отключить всю рекламу на сайте

02-09-2015 18:54 Левша Скачать торрент  

ждём теперь 1080р)pb.wtf



    Дорогой пользователь! Огромная просьба, поблагодарите релизера, оцените раздачу и оставьте свои комментарий, если Вы скачали Левша через торрент бесплатно! Внесите свою лепту в развитие PiratBit!
    Комментировать посты могут только пользователи прошедшие не сложную регистрацию
    Показать сообщения:    

    Левша через торрент
    Скачать бесплатно Левша
    Левша скачать торрент
    Левша смотреть онлайн
    Cкачать фильм Левша бесплатно
    Левша скачать торрент в хорошем качестве
    Левша смотреть онлайн бесплатно в хорошем качестве


    Вы не можете начинать темы
    Вы не можете отвечать на сообщения
    Вы не можете редактировать свои сообщения
    Вы не можете удалять свои сообщения
    Вы не можете голосовать в опросах
    Вы не можете прикреплять файлы к сообщениям
    Вы можете скачивать файлы