1 сезон

1 сезон

iTunes

1

КиноПоиск HD

Кинопоиск HD

iTunes

13

1 сезон

RePack

30

Ultimate

ВАЖНО

ИГРА 18+

pack

RePack

MK11
pack

Легкие деньги

RePack

jed

RePack

fifa19

RePack

RDR2

RePack

NEED FOR SPEED™ PAYBACK

4 сезон

9 сезон

Бесстыжие 9 сезон

Все сериалы

все сериалы на PB.wtf

RePack

FAR CRY 5
  
Magnet ссылка

S.P.L. Звёзды судьбы / Sha po long (Уилсон Ип) [2005, боевик, триллер, драма, криминал, BDRip AVC by msltel] 2 x MVO, DVO, AVO pb.wtf

S.P.L. Звёзды судьбы через торрент pb.wtf

Размер: 3.32 GB | Добавлен: 5 лет 7 мес. назад | Торрент скачан:122 раза
Скачать  

03-09-2015 08:05 S.P.L. Звёзды судьбы Скачать торрент  

Название: S.P.L. Звёзды судьбы
Оригинальное название: Sha po long
Год выпуска: 2005
Страна: Гонконг, Макао
Жанр: боевик, триллер, драма, криминал
Продолжительность: 01:30:00
Перевод: профессиональный многоголосый, профессиональный двухголосый, авторский

Режиссёр: Уилсон Ип

В ролях: Донни Йен, Саймон Ям, Саммо Хунг, Джеки Ву, Лью Кай Чи, Дэнни Саммер, Кен Чанг, Остин Вэй, Тимми Хунг, Тат Чи Чан

Описание: Sha, Po, Lang — звёзды, чьё положительное или отрицательное влияние восточные астрологи определяют, исходя из их взаимного расположения. Как встанут эти светила сейчас? Детектив Чан заботится о дочери убитого полицейского, мечтая отомстить убийце «королю» мафии По. Чан так сильно жаждет мести, что в его душе стирается грань между добром и злом. В роковое противостояние оказывается невольно вовлечён и Ма, сотрудник Чана. Теперь все трое — участники смертельного поединка...



Качество: BDRip AVC Сравнение с исходником
Формат: MKV
Видео кодек: H.264
Аудио кодек: AC3
Видео: MPEG-4 AVC, 2766 Кбит/с, 1024x576, 24 кадра/с
Аудио 1: русский, AC3, 448 kbps, 6 ch, 48 kHz [профессиональный многоголосый, Total DVD]
Аудио 2: русский, AC3, 448 kbps, 6 ch, 48 kHz [профессиональный многоголосый, Top Industry]
Аудио 3: русский, AC3, 448 kbps, 6 ch, 48 kHz [профессиональный двухголосый, Пётр Гланц и Инна Королёва]
Аудио 4: русский, AC3, 448 kbps, 6 ch, 48 kHz [авторский, Юрий Сербин]
Аудио 5: китайский, AC3, 448 kbps, 6 ch, 48 kHz [оригинал]
Общее
Уникальный идентификатор : 206862521827845559818221018704370458639 (0x9BA045C39B4D5928A486E1DB549FE00F)
Полное имя : D:VideoЗвёзды судьбы.2005.BDRip.AVC.mkv
Формат : Matroska
Версия формата : Version 4 / Version 2
Размер файла : 3,32 Гбайт
Продолжительность : 1 ч. 33 м.
Общий поток : 5108 Кбит/сек
Дата кодирования : UTC 2015-09-03 02:09:45
Программа кодирования : mkvmerge v8.2.0 ('World of Adventure') 64bit
Библиотека кодирования : libebml v1.3.1 + libmatroska v1.4.2
DURATION : 01:33:00.480000000
NUMBER_OF_FRAMES : 174390
NUMBER_OF_BYTES : 312506880
_STATISTICS_WRITING_APP : mkvmerge v8.2.0 ('World of Adventure') 64bit
_STATISTICS_WRITING_DATE_UTC : 2015-09-03 02:09:45
_STATISTICS_TAGS : BPS DURATION NUMBER_OF_FRAMES NUMBER_OF_BYTES

Видео
Идентификатор : 1
Формат : AVC
Формат/Информация : Advanced Video Codec
Профиль формата : High@L4.1
Параметр CABAC формата : Да
Параметр ReFrames формата : 9 кадров
Идентификатор кодека : V_MPEG4/ISO/AVC
Продолжительность : 1 ч. 33 м.
Битрейт : 2766 Кбит/сек
Ширина : 1024 пикселя
Высота : 576 пикселей
Соотношение сторон : 16:9
Режим частоты кадров : Постоянный
Частота кадров : 24,000 кадра/сек
Цветовое пространство : YUV
Субдискретизация насыщенности : 4:2:0
Битовая глубина : 8 бит
Тип развёртки : Прогрессивная
Бит/(Пиксели*Кадры) : 0.195
Размер потока : 1,80 Гбайт (54%)
Библиотека кодирования : x264 core 146 r2538 121396c
Настройки программы : cabac=1 / ref=9 / deblock=1:-2:-2 / analyse=0x3:0x113 / me=umh / subme=10 / psy=1 / psy_rd=1.00:0.15 / mixed_ref=1 / me_range=32 / chroma_me=1 / trellis=2 / 8x8dct=1 / cqm=0 / deadzone=21,11 / fast_pskip=1 / chroma_qp_offset=-3 / threads=6 / lookahead_threads=1 / sliced_threads=0 / nr=0 / decimate=1 / interlaced=0 / bluray_compat=0 / constrained_intra=0 / bframes=8 / b_pyramid=2 / b_adapt=2 / b_bias=0 / direct=1 / weightb=1 / open_gop=0 / weightp=2 / keyint=230 / keyint_min=23 / scenecut=40 / intra_refresh=0 / rc_lookahead=40 / rc=crf / mbtree=0 / crf=20.9 / qcomp=0.60 / qpmin=0 / qpmax=69 / qpstep=4 / vbv_maxrate=40000 / vbv_bufsize=50000 / crf_max=0.0 / nal_hrd=none / filler=0 / ip_ratio=1.40 / pb_ratio=1.30 / aq=1:1.00
Язык : Chinese
Default : Да
Forced : Нет
DURATION : 01:33:00.750000000
NUMBER_OF_FRAMES : 133938
NUMBER_OF_BYTES : 1998635886
_STATISTICS_WRITING_APP : mkvmerge v8.2.0 ('World of Adventure') 64bit
_STATISTICS_WRITING_DATE_UTC : 2015-09-03 02:09:45
_STATISTICS_TAGS : BPS DURATION NUMBER_OF_FRAMES NUMBER_OF_BYTES

Аудио #1
Идентификатор : 2
Формат : AC-3
Формат/Информация : Audio Coding 3
Расширение режима : CM (complete main)
Параметр Endianness формата : Big
Идентификатор кодека : A_AC3
Продолжительность : 1 ч. 33 м.
Вид битрейта : Постоянный
Битрейт : 448 Кбит/сек
Каналы : 6 каналов
Расположение каналов : Front: L C R, Side: L R, LFE
Частота : 48,0 КГц
Метод сжатия : С потерями
Размер потока : 298 Мбайт (9%)
Заголовок : MVO (Total DVD)
Язык : Russian
Default : Да
Forced : Нет

Аудио #2
Идентификатор : 3
Формат : AC-3
Формат/Информация : Audio Coding 3
Расширение режима : CM (complete main)
Параметр Endianness формата : Big
Идентификатор кодека : A_AC3
Продолжительность : 1 ч. 33 м.
Вид битрейта : Постоянный
Битрейт : 448 Кбит/сек
Каналы : 6 каналов
Расположение каналов : Front: L C R, Side: L R, LFE
Частота : 48,0 КГц
Метод сжатия : С потерями
Размер потока : 298 Мбайт (9%)
Заголовок : MVO (Top Industry)
Язык : Russian
Default : Нет
Forced : Нет

Аудио #3
Идентификатор : 4
Формат : AC-3
Формат/Информация : Audio Coding 3
Расширение режима : CM (complete main)
Параметр Endianness формата : Big
Идентификатор кодека : A_AC3
Продолжительность : 1 ч. 33 м.
Вид битрейта : Постоянный
Битрейт : 448 Кбит/сек
Каналы : 6 каналов
Расположение каналов : Front: L C R, Side: L R, LFE
Частота : 48,0 КГц
Метод сжатия : С потерями
Размер потока : 298 Мбайт (9%)
Заголовок : DVO (Пётр Гланц и Инна Королёва)
Язык : Russian
Default : Нет
Forced : Нет

Аудио #4
Идентификатор : 5
Формат : AC-3
Формат/Информация : Audio Coding 3
Расширение режима : CM (complete main)
Параметр Endianness формата : Big
Идентификатор кодека : A_AC3
Продолжительность : 1 ч. 33 м.
Вид битрейта : Постоянный
Битрейт : 448 Кбит/сек
Каналы : 6 каналов
Расположение каналов : Front: L C R, Side: L R, LFE
Частота : 48,0 КГц
Метод сжатия : С потерями
Размер потока : 298 Мбайт (9%)
Заголовок : AVO (Юрий Сербин)
Язык : Russian
Default : Нет
Forced : Нет

Аудио #5
Идентификатор : 6
Формат : AC-3
Формат/Информация : Audio Coding 3
Расширение режима : CM (complete main)
Параметр Endianness формата : Big
Идентификатор кодека : A_AC3
Продолжительность : 1 ч. 33 м.
Вид битрейта : Постоянный
Битрейт : 448 Кбит/сек
Каналы : 6 каналов
Расположение каналов : Front: L C R, Side: L R, LFE
Частота : 48,0 КГц
Метод сжатия : С потерями
Размер потока : 298 Мбайт (9%)
Заголовок : Original
Язык : Chinese
Default : Нет
Forced : Нет
pb.wtf



Скачать S.P.L. Звёзды судьбы через торрент http://i68.fastpic.ru/big/2015/0903/63/7752516d5adc77c0a2f3390625b8f163.jpg Скачать фильм S.P.L. Звёзды судьбы через торрент бесплантно в хорошем качестве Описание: Sha, Po, Lang — звёзды, чьё положительное или отрицательное влияние восточные астрологи определяют, исходя из их взаимного ... 8.9 10 8
Торрент: Зарегистрирован [2015-09-03 08:05] · скачан: 122 раз
Статус: √ проверено
Размер: 3.32 GB
Как cкачать? Как скачать S.P.L. Звёзды судьбы через торрент | UTorrent

% Раздел Тема Автор DL S | L
Фильмы [HD 720p, 1080p] (Хороший звук DUB, MVO) [ 12.4 GB ] S.P.L. Звёзды судьбы / Sha po long [2005 BDRip 1080p by msltel] 2 x MVO DVO AVO msltel Скачать
1 | 0
Фильмы [HD 720p, 1080p] (Хороший звук DUB, MVO) [ 4.6 GB ] S.P.L. Звёзды судьбы / Sha po long [2005 BDRip 720p by msltel] 2 x MVO DVO AVO msltel Скачать
1 | 0

28-11-2019 20:33  

Отключить всю рекламу на сайте

03-09-2015 08:53 S.P.L. Звёзды судьбы Скачать торрент  

СПС норм кинцо!pb.wtf



03-09-2015 12:12 S.P.L. Звёзды судьбы Скачать торрент  

гонконг и южная корея последние годы делают отличное кино-спасибо-забираемpb.wtf



    Дорогой пользователь! Огромная просьба, поблагодарите релизера, оцените раздачу и оставьте свои комментарий, если Вы скачали S.P.L. Звёзды судьбы через торрент бесплатно! Внесите свою лепту в развитие PiratBit!
    Комментировать посты могут только пользователи прошедшие не сложную регистрацию
    Показать сообщения:    

    S.P.L. Звёзды судьбы через торрент
    Скачать бесплатно S.P.L. Звёзды судьбы
    S.P.L. Звёзды судьбы скачать торрент
    S.P.L. Звёзды судьбы смотреть онлайн
    Cкачать фильм S.P.L. Звёзды судьбы бесплатно
    S.P.L. Звёзды судьбы скачать торрент в хорошем качестве
    S.P.L. Звёзды судьбы смотреть онлайн бесплатно в хорошем качестве


    Вы не можете начинать темы
    Вы не можете отвечать на сообщения
    Вы не можете редактировать свои сообщения
    Вы не можете удалять свои сообщения
    Вы не можете голосовать в опросах
    Вы не можете прикреплять файлы к сообщениям
    Вы можете скачивать файлы