Ссылка на приватное зеркало нашего сайта всего за 1$. Внимание количество ограничено!!!

2 сезон

iTunes

1 сезон

1

iTunes

iTunes

iTunes

1 сезон

RePack

30

ИГРА 18+

pack

ВАЖНО

!!Акция!!

Alien_RageХит недели

RePack

MK11
pack

Забери бонус

RePack

jed

!!Акция!!

Alien_Rage

RePack

fifa19

RePack

Assassins Creed: Odyssey

RePack

NEED FOR SPEED™ PAYBACK

4 сезон

9 сезон

Бесстыжие 9 сезон

Все сериалы

все сериалы на PB.wtf

RePack

FAR CRY 5
  

Неуправляемый / Rudderless (Уильям Х. Мэйси) [2014, драма, музыка, BDRip 720p, Дубляж] iTunes pb.wtf

Неуправляемый через торрент pb.wtf

Размер: 4.65 GB | Добавлен: 5 лет 1 мес. назад | Торрент скачан:72 раза
Скачать  

03-09-2015 14:26 Неуправляемый Скачать торрент  


Неуправляемый / Rudderless
««The way back begins with a single chord»»

ИНФОРМАЦИЯ:
Год выпуска:2014
Страна: США
Жанр: драма, музыка
Продолжительность: 01:45:18
Перевод: Дубляж - [Лицензия / iTunes]
Режиссер: Уильям Х. Мэйси

В Ролях:


Билли Крудап (Sam), Антон Ельчин (Quentin), Лоренс Фишбёрн (Del), Фелисити Хаффман (Emily), Селена Гомес (Kate), Майлс Хейзер (Josh), Александра Лавлэйс (Mary Beth), Кэйси Твентер (Casey), Дэвид Флэннери (Jacob Taylor (aka Dorm Dude)), Эрик Старки (Brent), Кеннейша Томпсон (Keri), Али Мейер (Female Newscaster #2)

Описание:
Отец, потерявший своего сына, однажды натыкается на коробку записей и текстов, записанных сыном. Потрясенный открытием никому неизвестного таланта, он создает музыкальную группу, в надежде обрести катарсис.

  • Мировая премьера:24 января 2014

    ТЕХ.ДАННЫЕ:
    Качество: BDRip 720p
    Формат: MKV
    Видео кодек: AVC
    Аудио кодек: AC3, DTS
    Видео: AVC, 1280x688 (1.860), 4432 kbps, 24 fps, 0,210 bpp
    Аудио №1: русский / AC3 / 5.1 / 48 kHz / 384 kbps / 16 bit ||
    Аудио №2: английский / DTS / 5.1 / 48 kHz / 1510 kbps / 24 bit
    Навигация по главам: есть


    General
    Unique ID : 209376621193175262969416789449873171301 (0x9D84786ED335F342BEB29AAB8A162365)
    Complete name : D:\Торенты\HeupPaBL1aemYj.2014.D.BDRip.720p.mkv
    Format : Matroska
    Format version : Version 2
    File size : 4.65 GiB
    Duration : 1h 45mn
    Overall bit rate : 6 319 Kbps
    Encoded date : UTC 2015-09-02 23:36:53
    Writing application : mkvmerge v8.3.0 ('Over the Horizon') 64bit
    Writing library : libebml v1.3.1 + libmatroska v1.4.2

    Video
    ID : 1
    Format : AVC
    Format/Info : Advanced Video Codec
    Format profile : High@L4.1
    Format settings, CABAC : Yes
    Format settings, ReFrames : 5 frames
    Codec ID : V_MPEG4/ISO/AVC
    Duration : 1h 45mn
    Bit rate : 4 432 Kbps
    Width : 1 280 pixels
    Height : 688 pixels
    Display aspect ratio : 1.860
    Frame rate : 24.000 fps
    Color space : YUV
    Chroma subsampling : 4:2:0
    Bit depth : 8 bits
    Scan type : Progressive
    Bits/(Pixel*Frame) : 0.210
    Stream size : 3.16 GiB (68%)
    Writing library : x264 core 148 r2579 73ae2d1
    Encoding settings : cabac=1 / ref=5 / deblock=1:-3:-3 / analyse=0x3:0x113 / me=umh / subme=8 / psy=1 / psy_rd=1.00:0.00 / mixed_ref=1 / me_range=16 / chroma_me=1 / trellis=1 / 8x8dct=1 / cqm=0 / deadzone=21,11 / fast_pskip=1 / chroma_qp_offset=-2 / threads=12 / lookahead_threads=2 / sliced_threads=0 / nr=0 / decimate=1 / interlaced=0 / bluray_compat=0 / constrained_intra=0 / bframes=3 / b_pyramid=2 / b_adapt=2 / b_bias=0 / direct=3 / weightb=1 / open_gop=0 / weightp=2 / keyint=240 / keyint_min=24 / scenecut=40 / intra_refresh=0 / rc=2pass / mbtree=0 / bitrate=4432 / ratetol=1.0 / qcomp=0.60 / qpmin=0 / qpmax=69 / qpstep=4 / cplxblur=20.0 / qblur=0.5 / ip_ratio=1.40 / pb_ratio=1.30 / aq=1:1.00
    Language : English
    Default : Yes
    Forced : No

    Audio #1
    ID : 2
    Format : AC-3
    Format/Info : Audio Coding 3
    Mode extension : CM (complete main)
    Codec ID : A_AC3
    Duration : 1h 45mn
    Bit rate mode : Constant
    Bit rate : 384 Kbps
    Channel(s) : 6 channels
    Channel positions : Front: L C R, Side: L R, LFE
    Sampling rate : 48.0 KHz
    Bit depth : 16 bits
    Compression mode : Lossy
    Stream size : 289 MiB (6%)
    Language : Russian
    Default : Yes
    Forced : No

    Audio #2
    ID : 3
    Format : DTS
    Format/Info : Digital Theater Systems
    Codec ID : A_DTS
    Duration : 1h 45mn
    Bit rate mode : Constant
    Bit rate : 1 510 Kbps
    Channel(s) : 6 channels
    Channel positions : Front: L C R, Side: L R, LFE
    Sampling rate : 48.0 KHz
    Bit depth : 24 bits
    Compression mode : Lossy
    Stream size : 1.11 GiB (24%)
    Language : English
    Default : No
    Forced : No

    Menu
    00:00:00.000 : en:00:00:00.000
    00:00:35.792 : en:00:00:35.792
    00:14:02.750 : en:00:14:02.750
    00:22:59.458 : en:00:22:59.458
    00:32:54.417 : en:00:32:54.417
    00:38:26.208 : en:00:38:26.208
    00:47:47.417 : en:00:47:47.417
    01:00:19.833 : en:01:00:19.833
    01:10:39.042 : en:01:10:39.042
    01:18:57.250 : en:01:18:57.250
    01:25:31.208 : en:01:25:31.208
    01:34:04.708 : en:01:34:04.708
    01:39:21.667 : en:01:39:21.667
    Скриншоты:


    © Оформление by Ворон
    pb.wtf



  • Скачать Неуправляемый через торрент http://pic.kartinco.top/images/6/ordi9.jpg Скачать фильм Неуправляемый через торрент бесплантно в хорошем качестве Описание: Отец, потерявший своего сына, однажды натыкается на коробку записей и текстов, записанных сыном. Потрясенный открытием никому ... 8 10 5
    Торрент: Зарегистрирован [2015-09-03 14:26] · скачан: 72 раз
    Статус: T временная
    Размер: 4.65 GB
    Как cкачать? Как скачать Неуправляемый через торрент | qTorrent

    % Раздел Тема Автор DL S | L
    Фильмы 2014 [DVDrip, WEB-DLRip, HDrip] [ 2.05 GB ] Неуправляемый / Rudderless [2014 музыка HDRip ] Ворон Скачать
    1 | 0
    Фильмы 2014 [DVDrip, WEB-DLRip, HDrip] [ 1.37 GB ] Неуправляемый / Rudderless [2014 музыка WEB-DLRip] Ворон Скачать
    2 | 0

    28-11-2019 20:33  

    Отключить всю рекламу на сайте

      Дорогой пользователь! Огромная просьба, поблагодарите релизера, оцените раздачу и оставьте свои комментарий, если Вы скачали Неуправляемый через торрент бесплатно! Внесите свою лепту в развитие PiratBit!
      Комментировать посты могут только пользователи прошедшие не сложную регистрацию
      Показать сообщения:    

      Неуправляемый через торрент
      Скачать бесплатно Неуправляемый
      Неуправляемый скачать торрент
      Неуправляемый смотреть онлайн
      Cкачать фильм Неуправляемый бесплатно
      Неуправляемый скачать торрент в хорошем качестве
      Неуправляемый смотреть онлайн бесплатно в хорошем качестве


      Вы не можете начинать темы
      Вы не можете отвечать на сообщения
      Вы не можете редактировать свои сообщения
      Вы не можете удалять свои сообщения
      Вы не можете голосовать в опросах
      Вы не можете прикреплять файлы к сообщениям
      Вы можете скачивать файлы