Ссылка на приватное зеркало нашего сайта всего за 1$. Внимание количество ограничено!!!

2 сезон

iTunes

1 сезон

1

iTunes

iTunes

iTunes

1 сезон

RePack

30

ИГРА 18+

pack

ВАЖНО

!!Акция!!

Alien_RageХит недели

RePack

MK11
pack

Забери бонус

RePack

jed

!!Акция!!

Alien_Rage

RePack

fifa19

RePack

Assassins Creed: Odyssey

RePack

NEED FOR SPEED™ PAYBACK

4 сезон

9 сезон

Бесстыжие 9 сезон

Все сериалы

все сериалы на PB.wtf

RePack

FAR CRY 5
  

Горничная / Housekeeping (Дженнифер Хэррингтон) [2015, триллер, WEB-DLRip, Любительский (двухголосый) [den904, DeadSno] pb.wtf

Горничная через торрент pb.wtf

Размер: 1.34 GB | Добавлен: 5 лет 1 мес. назад | Торрент скачан:144 раза
Скачать  

03-09-2015 17:31 Горничная Скачать торрент  


Горничная / Housekeeping
««Blood Always Stains»»

ИНФОРМАЦИЯ:
Год выпуска:2015
Страна: США
Жанр: триллер
Продолжительность: 01:28:16
Перевод: Любительский (двухголосый) [den904, DeadSno]
Режиссер: Дженнифер Хэррингтон

В Ролях:

Адриана Солис (Lucy), Блэр Вуйчик (Lindsay), Monica Percich (Denise), Карлос Фоглиа (Sal), Peter Schlechter (Detective), Jennifer Akana Sturla (Creepy Mother), Эрик Госселин (Internship Director), Jessica Gosselin (Office Administrator), Angelique Hicke (School Administrator), Jon Livingston (Thug)

Описание:
Даже со всеми своими дипломами, степенями и знаниями латиноамериканская девушка Люси сумела трудоустроиться лишь прислугой к некоей загадочной мисс Линдси. Её никогда нет дома, задания для Люси она оставляет в виде записок. Уже после первого дня девушка понимает, что попала в натуральный сумасшедший дом, где следует беспрекословно подчиняться установленным правилам и слепо подчиняться инструкциям.

  • Мировая премьера:31 марта 2015

    ТЕХ.ДАННЫЕ:
    Качество: WEB-DLRip
    Формат: AVI
    Видео кодек: XviD
    Аудио кодек: AC3
    Видео: XviD, 720x400 (16:9), 1884 kbps, 25 fps, 0,262 bpp
    Аудио: AC3 / 2.0 / 48 kHz / 192 kbps / 16 bit


    General
    Complete name : D:\Торенты\H0usek33p1ng.L2.2015.WEBDLRip.avi
    Format : AVI
    Format/Info : Audio Video Interleave
    File size : 1.34 GiB
    Duration : 1h 28mn
    Overall bit rate : 2 171 Kbps
    Writing application : VirtualDubMod 1.5.10.3 | www.virtualdub-fr.org || (build 2550/release)
    Writing library : VirtualDubMod build 2550/release

    Video
    ID : 0
    Format : MPEG-4 Visual
    Format profile : Advanced Simple@L5
    Format settings, BVOP : 1
    Format settings, QPel : No
    Format settings, GMC : No warppoints
    Format settings, Matrix : Default (H.263)
    Codec ID : XVID
    Codec ID/Hint : XviD
    Duration : 1h 28mn
    Bit rate : 1 884 Kbps
    Width : 720 pixels
    Height : 400 pixels
    Display aspect ratio : 16:9
    Frame rate : 25.000 fps
    Color space : YUV
    Chroma subsampling : 4:2:0
    Bit depth : 8 bits
    Scan type : Progressive
    Compression mode : Lossy
    Bits/(Pixel*Frame) : 0.262
    Stream size : 1.16 GiB (87%)
    Writing library : XviD 1.2.1 (UTC 2008-12-04)

    Audio
    ID : 1
    Format : AC-3
    Format/Info : Audio Coding 3
    Mode extension : CM (complete main)
    Codec ID : 2000
    Duration : 1h 28mn
    Bit rate mode : Constant
    Bit rate : 192 Kbps
    Channel(s) : 2 channels
    Channel positions : Front: L R
    Sampling rate : 48.0 KHz
    Bit depth : 16 bits
    Compression mode : Lossy
    Stream size : 121 MiB (9%)
    Alignment : Split accross interleaves
    Скриншоты:


    © Оформление by Ворон
    pb.wtf



  • Скачать Горничная через торрент http://pic.kartinco.top/images/6/ordi9.jpg Скачать фильм Горничная через торрент бесплантно в хорошем качестве Описание: Даже со всеми своими дипломами, степенями и знаниями латиноамериканская девушка Люси сумела трудоустроиться лишь прислугой к ... 10 10 6
    Торрент: Зарегистрирован [2015-09-03 17:31] · скачан: 144 раз
    Статус: T временная
    Размер: 1.34 GB
    Как cкачать? Как скачать Горничная через торрент | qTorrent

    28-11-2019 20:33  

    Отключить всю рекламу на сайте

    03-09-2015 18:17 Горничная Скачать торрент  

    Судя по названию и описанию все это попахивает какой то порнухой. кто смотрел? стоит тратить время на просмотр или это очередной трешpb.wtf



      Дорогой пользователь! Огромная просьба, поблагодарите релизера, оцените раздачу и оставьте свои комментарий, если Вы скачали Горничная через торрент бесплатно! Внесите свою лепту в развитие PiratBit!
      Комментировать посты могут только пользователи прошедшие не сложную регистрацию
      Показать сообщения:    

      Горничная через торрент
      Скачать бесплатно Горничная
      Горничная скачать торрент
      Горничная смотреть онлайн
      Cкачать фильм Горничная бесплатно
      Горничная скачать торрент в хорошем качестве
      Горничная смотреть онлайн бесплатно в хорошем качестве


      Вы не можете начинать темы
      Вы не можете отвечать на сообщения
      Вы не можете редактировать свои сообщения
      Вы не можете удалять свои сообщения
      Вы не можете голосовать в опросах
      Вы не можете прикреплять файлы к сообщениям
      Вы можете скачивать файлы