Ссылка на приватное зеркало всего за 1$. Внимание количество ограничено!!!

OK

1+1

iTunes

мы

OK

1

WEB-DLRip

Джокер

Пифагор

Ведьмак / The Witcher сериал

iTunes

ПШазам

ОК

Оно 2

iTunes

30
pack

Вам бонус

ВАЖНО

!!Акция!!

Alien_RageХит недели

RePack

Resident Evil 21

ИГРА 18+

pack

RePack

jed

RePack

fifa19

RePack

Assassins Creed: Odyssey

RePack

NEED FOR SPEED™ PAYBACK

4 сезон

9 сезон

Бесстыжие 9 сезон

Все сериалы

все сериалы на PB.wtf

RePack

FAR CRY 5
  

Полтергейст / Poltergeist (Гил Кинан) [2015, ужасы, триллер, WEB-DLRip, Дубляж] iTunes(Extended cut) pb.wtf

Полтергейст через торрент pb.wtf

Размер: 1.46 GB | Добавлен: 4 года 4 мес. назад | Торрент скачан:1069 раз
Скачать  

03-09-2015 19:38 Полтергейст Скачать торрент  


Полтергейст / Poltergeist
««They know what scares you»»

ИНФОРМАЦИЯ:
Год выпуска:2015
Страна: США, Канада
Жанр: ужасы, триллер
Продолжительность: 01:41:17
Перевод: Дубляж - [Лицензия / iTunes]
Режиссер: Гил Кинан

В Ролях:


Сэм Рокуэлл (Eric Bowen), Розмари ДеУитт (Amy Bowen), Саксон Шарбино (Kendra Bowen), Кайл Кэтлетт (Griffin Bowen), Кеннеди Клементс (Madison Bowen), Джаред Харрис (Carrigan Burke), Джейн Адамс (Dr. Brooke Powell), Сьюзэн Хэйард (Sophie), Николас Браун (Boyd), Карен Ивани (Mrs. Stoller), Патрик Гэрроу (Mr. Stoller), Дуглас Маклеод (Older Gentleman)

Описание:
Когда страшные призраки забирают младшую дочь, семье приходится объединиться, чтобы спасти ее...

  • Мировая премьера:18 мая 2015

    ТЕХ.ДАННЫЕ:
    Качество: WEB-DLRip
    Формат: AVI
    Видео кодек: XviD
    Аудио кодек: AC3
    Видео: XviD, 720x304 (2.35:1),1670 kbps, 23,976 fps, 0,302 bpp
    Аудио: AC3 / 5.1 / 48 kHz / 384 kbps / 16 bit


    General
    Complete name : D:\Торенты\P0lt3rgeist.UNRATED.2015.D.WEBDLRip.1.46GB.avi
    Format : AVI
    Format/Info : Audio Video Interleave
    File size : 1.46 GiB
    Duration : 1h 41mn
    Overall bit rate : 2 062 Kbps
    Writing application : VirtualDubMod 1.5.10.3 | www.virtualdub-fr.org || (build 2550/release)
    Writing library : VirtualDubMod build 2550/release

    Video
    ID : 0
    Format : MPEG-4 Visual
    Format profile : Advanced Simple@L5
    Format settings, BVOP : 2
    Format settings, QPel : No
    Format settings, GMC : No warppoints
    Format settings, Matrix : Default (MPEG)
    Codec ID : XVID
    Codec ID/Hint : XviD
    Duration : 1h 41mn
    Bit rate : 1670 Kbps
    Width : 720 pixels
    Height : 304 pixels
    Display aspect ratio : 2.35:1
    Frame rate : 23.976 fps
    Color space : YUV
    Chroma subsampling : 4:2:0
    Bit depth : 8 bits
    Scan type : Progressive
    Compression mode : Lossy
    Bits/(Pixel*Frame) : 0.302
    Stream size : 1.12 GiB (77%)
    Writing library : XviD 1.2.1 (UTC 2008-12-04)

    Audio
    ID : 1
    Format : AC-3
    Format/Info : Audio Coding 3
    Mode extension : CM (complete main)
    Codec ID : 2000
    Duration : 1h 40mn
    Bit rate mode : Constant
    Bit rate : 384 Kbps
    Channel(s) : 6 channels
    Channel positions : Front: L C R, Side: L R, LFE
    Sampling rate : 48.0 KHz
    Bit depth : 16 bits
    Compression mode : Lossy
    Stream size : 277 MiB (19%)
    Alignment : Split accross interleaves
    Скриншоты:


    © Оформление by Ворон
    pb.wtf



  • Скачать Полтергейст через торрент http://pic.kartinco.top/images/6/ordi9.jpg Скачать фильм Полтергейст через торрент бесплантно в хорошем качестве Описание: Когда страшные призраки забирают младшую дочь, семье приходится объединиться, чтобы спасти ее... Мировая премьера:18 мая 2015 ... 9.3 10 36
    Info! Золотая раздача, скачанное не засчитывается.
    Торрент: Зарегистрирован [2015-09-03 19:38] · скачан: 1 069 раз
    Статус: √ проверено
    Размер: 1.46 GB
    Как cкачать? Как скачать Полтергейст через торрент | qTorrent

    % Раздел Тема Автор DL S | L
    Зарубежные сериалы [ 53.3 GB ] Полтергейст - Наследие / Буйство духов / Poltergeist - The Legacy / Сезон: 1-4 из 4 / Серии: 1-88 из 88 [1996 - 1999 DVDRip] MVO Serejechka Скачать
    1 | 0
    Фильмы (Blu-ray, BD-Remux, HDDVD) [ 34.24 GB ] Полтергейст / Poltergeist [2015 Blu-Ray / Театральная и расширенная версии / ] Ворон Скачать
    1 | 0
    Фильмы (BDRip, HDrip-AVC) (48-60 fps) [ 3.8 GB ] Полтергейст / Poltergeist [2015 BDRip-AVC / 60fps Dub ] от R.G. HD-Films Ressident Скачать
    1 | 0
    Фильмы 2015 [DVDrip, WEB-DLRip, HDrip] [ 2.18 GB ] Полтергейст / Poltergeist [2015 BDRip-AVC] DUB potroks Скачать
    1 | 0
    Фильмы 2015 [DVDrip, WEB-DLRip, HDrip] [ 1.46 GB ] Полтергейст / Poltergeist [2015 BDRip-AVC] DUB potroks Скачать
    1 | 0
    3D Фильмы [ 11.8 GB ] Полтергейст / Poltergeist [2015 BDrip 1080p]Full OverUnder / Вертикальная стереопара serega768 Скачать
    1 | 0
    Фильмы [HD 720p, 1080p] (Хороший звук DUB, MVO) [ 7.76 GB ] Полтергейст / Poltergeist [2015 BDRip 1080p от _denis_100 / NNNB] - [] _denis_100 Скачать
    1 | 0

    28-11-2019 20:33  

    Отключить всю рекламу на сайте

    04-09-2015 11:44 Полтергейст Скачать торрент  

    На кинопоиске отзывы про фильм отстойные! Что правда всё так плохо ?)pb.wtf



    04-09-2015 13:11 Полтергейст Скачать торрент  

    Ну и хрень )))pb.wtf



    04-09-2015 14:24 Полтергейст Скачать торрент  

    zubik1488 писал(а):

    На кинопоиске отзывы про фильм отстойные! Что правда всё так плохо ?)

    Весьма плохо...pb.wtf



    04-09-2015 15:30 Полтергейст Скачать торрент  

    норм фильм, можно посмотретьpb.wtf



    05-09-2015 04:56 Полтергейст Скачать торрент  

    Норм фильм, школьникам лишь бы обосрать...pb.wtf



    05-09-2015 06:22 Полтергейст Скачать торрент  

    одну из серий Гриффинов экранизировали... но у гриффинов то смешнее былоpb.wtf



    07-09-2015 05:53 Полтергейст Скачать торрент  

    слабовато, и сюжет и игра актеров.

    Но больше всего напрягло - семья, в которой оба родителя безработных, денег на карточках тоже нет - живут в долг/кредит - покупают дом... когда он разрушается, едут в чужом автомобиле в другой город и там опять хотят купить дом... зачем сценаристы придумали что они безработные и денег у них нет, без этого можно было обойтись как-то.pb.wtf



    07-09-2015 22:42 Полтергейст Скачать торрент  

    real DEMON писал(а):

    Норм фильм, школьникам лишь бы обосрать...

    фильм,уровня школьников ))))pb.wtf



      Дорогой пользователь! Огромная просьба, поблагодарите релизера, оцените раздачу и оставьте свои комментарий, если Вы скачали Полтергейст через торрент бесплатно! Внесите свою лепту в развитие PiratBit!
      Комментировать посты могут только пользователи прошедшие не сложную регистрацию
      Показать сообщения:    

      Полтергейст через торрент
      Скачать бесплатно Полтергейст
      Полтергейст скачать торрент
      Полтергейст смотреть онлайн
      Cкачать фильм Полтергейст бесплатно
      Полтергейст скачать торрент в хорошем качестве
      Полтергейст смотреть онлайн бесплатно в хорошем качестве


      Вы не можете начинать темы
      Вы не можете отвечать на сообщения
      Вы не можете редактировать свои сообщения
      Вы не можете удалять свои сообщения
      Вы не можете голосовать в опросах
      Вы не можете прикреплять файлы к сообщениям
      Вы можете скачивать файлы