Ссылка на приватное зеркало всего за 1$. Внимание количество ограничено!!!

iTunes

iTunes

iTunes

1

iTunes

iTunes

iTunes

iTunes

iTunes

30
pack

$ от Little Big

ВАЖНО

!!Акция!!

Alien_RageХит недели

RePack

Resident Evil 21

ИГРА 18+

pack

RePack

jed

!!Акция!!

Alien_Rage

RePack

fifa19

RePack

Assassins Creed: Odyssey

RePack

NEED FOR SPEED™ PAYBACK

4 сезон

9 сезон

Бесстыжие 9 сезон

Все сериалы

все сериалы на PB.wtf

RePack

FAR CRY 5
  

Полтергейст / Poltergeist (Гил Кинан) [2015, ужасы, триллер, WEB-DL 1080p, Дубляж] iTunes [Extended Cut] pb.wtf

Полтергейст через торрент pb.wtf

Размер: 3.35 GB | Добавлен: 4 года 10 мес. назад | Торрент скачан:842 раза
Скачать  

03-09-2015 20:01 Полтергейст Скачать торрент  


Полтергейст / Poltergeist
««They know what scares you»»

ИНФОРМАЦИЯ:
Год выпуска:2015
Страна: США, Канада
Жанр: ужасы, триллер
Продолжительность: 01:41:17
Перевод: Дубляж - [Лицензия / iTunes]
Режиссер: Гил Кинан

В Ролях:


Сэм Рокуэлл (Eric Bowen), Розмари ДеУитт (Amy Bowen), Саксон Шарбино (Kendra Bowen), Кайл Кэтлетт (Griffin Bowen), Кеннеди Клементс (Madison Bowen), Джаред Харрис (Carrigan Burke), Джейн Адамс (Dr. Brooke Powell), Сьюзэн Хэйард (Sophie), Николас Браун (Boyd), Карен Ивани (Mrs. Stoller), Патрик Гэрроу (Mr. Stoller), Дуглас Маклеод (Older Gentleman)

Описание:
Когда страшные призраки забирают младшую дочь, семье приходится объединиться, чтобы спасти ее...

  • Мировая премьера:18 мая 2015

    ТЕХ.ДАННЫЕ:
    Качество: WEB-DL 1080p
    Формат: MKV
    Видео кодек: AVC
    Аудио кодек: AC3
    Видео: AVC, 1916x796 (2.40:1), 4259 kbps, 23,976 fps, 0,116 bpp
    Аудио: русский / AC3 / 5.1 / 48 kHz / 384 kbps / 16 bit ||
    Навигация по главам: есть

    Цитата:

    Примечание: EXTENDED версия длиннее театральной на ~8 мин. Полный лицензионный перевод.


    General
    Unique ID : 249454432524696248219998398274313234160 (0xBBAB2D173EC6270BB241F1A14A59A6F0)
    Complete name : D:\Торенты\P0lt3rgeist.UNRATED.2015.D.WEBDL.1080p.mkv
    Format : Matroska
    Format version : Version 4 / Version 2
    File size : 3.35 GiB
    Duration : 1h 41mn
    Overall bit rate : 4 737 Kbps
    Encoded date : UTC 2015-09-03 18:19:22
    Writing application : mkvmerge v6.9.1 ('Blue Panther') 64bit built on Apr 18 2014 18:23:38
    Writing library : libebml v1.3.0 + libmatroska v1.4.1

    Video
    ID : 1
    Format : AVC
    Format/Info : Advanced Video Codec
    Format profile : High@L4.0
    Format settings, CABAC : Yes
    Format settings, ReFrames : 5 frames
    Codec ID : V_MPEG4/ISO/AVC
    Duration : 1h 41mn
    Bit rate : 4 259 Kbps
    Width : 1 916 pixels
    Height : 796 pixels
    Display aspect ratio : 2.40:1
    Frame rate : 23.976 fps
    Color space : YUV
    Chroma subsampling : 4:2:0
    Bit depth : 8 bits
    Scan type : Progressive
    Bits/(Pixel*Frame) : 0.116
    Stream size : 3.01 GiB (90%)
    Language : English
    Default : Yes
    Forced : No
    Color primaries : BT.709-5, BT.1361, IEC 61966-2-4, SMPTE RP177
    Transfer characteristics : BT.709-5, BT.1361
    Matrix coefficients : BT.709-5, BT.1361, IEC 61966-2-4 709, SMPTE RP177

    Audio
    ID : 2
    Format : AC-3
    Format/Info : Audio Coding 3
    Mode extension : CM (complete main)
    Codec ID : A_AC3
    Duration : 1h 41mn
    Bit rate mode : Constant
    Bit rate : 384 Kbps
    Channel(s) : 6 channels
    Channel positions : Front: L C R, Side: L R, LFE
    Sampling rate : 48.0 KHz
    Bit depth : 16 bits
    Compression mode : Lossy
    Stream size : 278 MiB (8%)
    Language : Russian
    Default : Yes
    Forced : No

    Menu
    00:00:00.000 : en:1
    00:04:51.000 : en:2
    00:09:49.000 : en:3
    00:16:20.000 : en:4
    00:20:25.000 : en:5
    00:22:27.000 : en:6
    00:26:24.000 : en:7
    00:29:54.000 : en:8
    00:34:58.000 : en:9
    00:37:20.000 : en:10
    00:41:33.000 : en:11
    00:46:46.000 : en:12
    00:49:48.000 : en:13
    00:53:32.000 : en:14
    00:59:59.000 : en:15
    01:04:19.000 : en:16
    01:06:33.000 : en:17
    01:09:30.000 : en:18
    01:12:27.000 : en:19
    01:15:56.000 : en:20
    01:19:26.000 : en:21
    01:25:12.000 : en:22
    01:29:45.000 : en:23
    01:34:50.000 : en:24
    Скриншоты:


    © Оформление by Ворон
    pb.wtf



  • Скачать Полтергейст через торрент http://pic.kartinco.top/images/6/ordi9.jpg Скачать фильм Полтергейст через торрент бесплантно в хорошем качестве Описание: Когда страшные призраки забирают младшую дочь, семье приходится объединиться, чтобы спасти ее... Мировая премьера:18 мая 2015 ... 8.7 10 30
    Info! Золотая раздача, скачанное не засчитывается.
    Торрент: Зарегистрирован [2015-09-03 20:01] · скачан: 842 раз
    Статус: √ проверено
    Размер: 3.35 GB
    Как cкачать? Как скачать Полтергейст через торрент | qTorrent

    % Раздел Тема Автор DL S | L
    Зарубежные сериалы [ 53.3 GB ] Полтергейст - Наследие / Буйство духов / Poltergeist - The Legacy / Сезон: 1-4 из 4 / Серии: 1-88 из 88 [1996 - 1999 DVDRip] MVO Serejechka Скачать
    1 | 0
    Фильмы (Blu-ray, BD-Remux, HDDVD) [ 34.24 GB ] Полтергейст / Poltergeist [2015 Blu-Ray / Театральная и расширенная версии / ] Ворон Скачать
    1 | 0
    Фильмы (BDRip, HDrip-AVC) (48-60 fps) [ 3.8 GB ] Полтергейст / Poltergeist [2015 BDRip-AVC / 60fps Dub ] от R.G. HD-Films Ressident Скачать
    1 | 0
    Фильмы 2015 [DVDrip, WEB-DLRip, HDrip] [ 2.18 GB ] Полтергейст / Poltergeist [2015 BDRip-AVC] DUB potroks Скачать
    1 | 0
    Фильмы 2015 [DVDrip, WEB-DLRip, HDrip] [ 1.46 GB ] Полтергейст / Poltergeist [2015 BDRip-AVC] DUB potroks Скачать
    1 | 0
    3D Фильмы [ 11.8 GB ] Полтергейст / Poltergeist [2015 BDrip 1080p]Full OverUnder / Вертикальная стереопара serega768 Скачать
    1 | 0
    Фильмы [HD 720p, 1080p] (Хороший звук DUB, MVO) [ 7.76 GB ] Полтергейст / Poltergeist [2015 BDRip 1080p от _denis_100 / NNNB] - [] _denis_100 Скачать
    1 | 0

    28-11-2019 20:33  

    Отключить всю рекламу на сайте

    05-09-2015 13:26 Полтергейст Скачать торрент  

    Смотрел кто?pb.wtf



    05-09-2015 13:26 Полтергейст Скачать торрент  

    фильм так себе, на один разpb.wtf



    07-09-2015 08:50 Полтергейст Скачать торрент  

    Фильм полная ахинея!pb.wtf



    07-09-2015 16:56 Полтергейст Скачать торрент  

    По сравнению с множеством подобных фильмов этот очень даже ничего.pb.wtf



    07-09-2015 20:05 Полтергейст Скачать торрент  

    Было пару моментов страшных, но в целом фильм дерьмовый!pb.wtf



      Дорогой пользователь! Огромная просьба, поблагодарите релизера, оцените раздачу и оставьте свои комментарий, если Вы скачали Полтергейст через торрент бесплатно! Внесите свою лепту в развитие PiratBit!
      Комментировать посты могут только пользователи прошедшие не сложную регистрацию
      Показать сообщения:    

      Полтергейст через торрент
      Скачать бесплатно Полтергейст
      Полтергейст скачать торрент
      Полтергейст смотреть онлайн
      Cкачать фильм Полтергейст бесплатно
      Полтергейст скачать торрент в хорошем качестве
      Полтергейст смотреть онлайн бесплатно в хорошем качестве


      Вы не можете начинать темы
      Вы не можете отвечать на сообщения
      Вы не можете редактировать свои сообщения
      Вы не можете удалять свои сообщения
      Вы не можете голосовать в опросах
      Вы не можете прикреплять файлы к сообщениям
      Вы можете скачивать файлы