Ссылка на приватное зеркало нашего сайта всего за 1$. Внимание количество ограничено!!!

2 сезон

iTunes

1 сезон

1

2 сезон

2 сезон

iTunes

1 сезон

RePack

30

Ultimate

ВАЖНО

ИГРА 18+

pack

RePack

MK11
pack

Забери бонус

RePack

jed

!!Акция!!

Alien_Rage

RePack

fifa19

RePack

Assassins Creed: Odyssey

RePack

NEED FOR SPEED™ PAYBACK

4 сезон

9 сезон

Бесстыжие 9 сезон

Все сериалы

все сериалы на PB.wtf

RePack

FAR CRY 5
  

Полтергейст / Poltergeist (Гил Кинан) [2015, ужасы, триллер, WEB-DL 720p / Extended cut] DUB - Лицензия / iTunes pb.wtf

Полтергейст через торрент pb.wtf

Размер: 3.09 GB | Добавлен: 5 лет 2 мес. назад | Торрент скачан:568 раз
Скачать  

03-09-2015 20:34 Полтергейст Скачать торрент  

Полтергейст / Poltergeist
««They know what scares you»»

Год выпуска: 2015
Страна: США, Канада
Жанр: ужасы, триллер
Продолжительность: 01:41:17
Перевод: Дубляж - [Лицензия / iTunes]
Навигация по главам: есть
Режиссер: Гил Кинан
В ролях: Сэм Рокуэлл (Eric Bowen), Розмари ДеУитт (Amy Bowen), Саксон Шарбино (Kendra Bowen), Кайл Кэтлетт (Griffin Bowen), Кеннеди Клементс (Madison Bowen), Джаред Харрис (Carrigan Burke), Джейн Адамс (Dr. Brooke Powell), Сьюзэн Хэйард (Sophie), Николас Браун (Boyd), Карен Ивани (Mrs. Stoller), Патрик Гэрроу (Mr. Stoller), Дуглас Маклеод (Older Gentleman)
Описание:
Когда страшные призраки забирают младшую дочь, семье приходится объединиться, чтобы спасти ее...
, MPAA: PG-13 - Детям до 13 лет просмотр не желателен
Качество: WEB-DL 720p
Формат: MKV
Видео кодек: AVC
Аудио кодек: AC3
Видео: AVC, 1280x532 (2.40:1), 3895 kbps, 23,976 fps, 0,239 bpp
Аудио: русский / AC3 / 5.1 / 48 kHz / 384 kbps / 16 bit ||

Код:

General
Unique ID                   : 241794346398771985655101043060714919069 (0xB5E7E5AFA3AB2C1DBA41462ACE6A549D)
Complete name               : E:\торрент\P0lt3rgeist.UNRATED.2015.D.WEBDL.720p.mkv
Format                      : Matroska
Format version              : Version 4 / Version 2
File size                   : 3.09 GiB
Duration                    : 1h 41mn
Overall bit rate            : 4 366 Kbps
Encoded date                : UTC 2015-09-03 18:53:36
Writing application         : mkvmerge v6.9.1 ('Blue Panther') 64bit built on Apr 18 2014 18:23:38
Writing library             : libebml v1.3.0 + libmatroska v1.4.1

Video
ID                          : 1
Format                      : AVC
Format/Info                 : Advanced Video Codec
Format profile              : Main@L3.1
Format settings, CABAC      : No
Format settings, ReFrames   : 2 frames
Codec ID                    : V_MPEG4/ISO/AVC
Duration                    : 1h 41mn
Bit rate                    : 3 896 Kbps
Width                       : 1 280 pixels
Height                      : 532 pixels
Display aspect ratio        : 2.40:1
Frame rate mode             : Constant
Frame rate                  : 23.976 fps
Color space                 : YUV
Chroma subsampling          : 4:2:0
Bit depth                   : 8 bits
Scan type                   : Progressive
Bits/(Pixel*Frame)          : 0.239
Stream size                 : 2.76 GiB (89%)
Language                    : English
Default                     : Yes
Forced                      : No
Color range                 : Limited
Color primaries             : BT.709
Transfer characteristics    : BT.709
Matrix coefficients         : BT.709

Audio
ID                          : 2
Format                      : AC-3
Format/Info                 : Audio Coding 3
Mode extension              : CM (complete main)
Format settings, Endianness : Big
Codec ID                    : A_AC3
Duration                    : 1h 41mn
Bit rate mode               : Constant
Bit rate                    : 384 Kbps
Channel(s)                  : 6 channels
Channel positions           : Front: L C R, Side: L R, LFE
Sampling rate               : 48.0 KHz
Compression mode            : Lossy
Stream size                 : 278 MiB (9%)
Language                    : Russian
Default                     : Yes
Forced                      : No

Menu
00:00:00.000                : en:1
00:04:51.000                : en:2
00:09:49.000                : en:3
00:16:20.000                : en:4
00:20:25.000                : en:5
00:22:27.000                : en:6
00:26:24.000                : en:7
00:29:54.000                : en:8
00:34:58.000                : en:9
00:37:20.000                : en:10
00:41:33.000                : en:11
00:46:46.000                : en:12
00:49:48.000                : en:13
00:53:32.000                : en:14
00:59:59.000                : en:15
01:04:19.000                : en:16
01:06:33.000                : en:17
01:09:30.000                : en:18
01:12:27.000                : en:19
01:15:56.000                : en:20
01:19:26.000                : en:21
01:25:12.000                : en:22
01:29:45.000                : en:23
01:34:50.000                : en:24


Цитата:

Примечание: EXTENDED версия длиннее театральной на ~8 мин. Полный лицензионный перевод.

pb.wtf



Скачать Полтергейст через торрент http://i4.imageban.ru/out/2015/09/03/638b86c79f7a2204896e9845884d01a3.jpg Скачать фильм Полтергейст через торрент бесплантно в хорошем качестве Описание: Когда страшные призраки забирают младшую дочь, семье приходится объединиться, чтобы спасти ее... , MPAA: PG-13 - Детям до 13 лет ... 9.1 10 19
Торрент: Зарегистрирован [2015-09-03 20:34] · скачан: 568 раз
Статус: √ проверено
Размер: 3.09 GB
Как cкачать? Как скачать Полтергейст через торрент | qTorrent

28-11-2019 20:33  

Отключить всю рекламу на сайте

05-09-2015 11:56 Полтергейст Скачать торрент  

первый скрин сделан при помощи сефи-палки)))pb.wtf



06-09-2015 17:17 Полтергейст Скачать торрент  

и как фильм?pb.wtf



07-09-2015 18:05 Полтергейст Скачать торрент  

Илья Рогулин писал(а):

и как фильм?

Та никак...pb.wtf



09-09-2015 09:43 Полтергейст Скачать торрент  

Ну я думал опять банальный ужастик, про то как семья приехала в новый дом и там началось. Тут не много все иначе.... советую посмотретьpb.wtf



    Дорогой пользователь! Огромная просьба, поблагодарите релизера, оцените раздачу и оставьте свои комментарий, если Вы скачали Полтергейст через торрент бесплатно! Внесите свою лепту в развитие PiratBit!
    Комментировать посты могут только пользователи прошедшие не сложную регистрацию
    Показать сообщения:    

    Полтергейст через торрент
    Скачать бесплатно Полтергейст
    Полтергейст скачать торрент
    Полтергейст смотреть онлайн
    Cкачать фильм Полтергейст бесплатно
    Полтергейст скачать торрент в хорошем качестве
    Полтергейст смотреть онлайн бесплатно в хорошем качестве


    Вы не можете начинать темы
    Вы не можете отвечать на сообщения
    Вы не можете редактировать свои сообщения
    Вы не можете удалять свои сообщения
    Вы не можете голосовать в опросах
    Вы не можете прикреплять файлы к сообщениям
    Вы можете скачивать файлы