Ссылка на приватное зеркало всего за 1$. Внимание количество ограничено!!!

iTunes

iTunes

iTunes

1

iTunes

iTunes

iTunes

iTunes

iTunes

30
pack

$ от Little Big

ВАЖНО

!!Акция!!

Alien_RageХит недели

RePack

Resident Evil 21

ИГРА 18+

pack

RePack

jed

!!Акция!!

Alien_Rage

RePack

fifa19

RePack

Assassins Creed: Odyssey

RePack

NEED FOR SPEED™ PAYBACK

4 сезон

9 сезон

Бесстыжие 9 сезон

Все сериалы

все сериалы на PB.wtf

RePack

FAR CRY 5
  

Шпион / Spy (Пол Фиг) [2015, боевик, комедия, криминал, WEB-DL 720p] DUB - Лицензия / iTunes [Theatrical версия] pb.wtf

Шпион через торрент pb.wtf

Размер: 3.72 GB | Добавлен: 4 года 10 мес. назад | Торрент скачан:81 раз
Скачать  

03-09-2015 22:07 Шпион Скачать торрент  

Шпион / Spy
««Одна из пижонов. Одна из шпионов»»

Год выпуска: 2015
Страна: США
Жанр: боевик, комедия, криминал
Продолжительность: 02:00:11
Перевод: Дубляж - [Лицензия / iTunes]
Режиссер: Пол Фиг
В ролях: Мелисса МакКарти (Susan Cooper), Джейсон Стэйтем (Rick Ford), Джуд Лоу (Bradley Fine), Роуз Бирн (Rayna Boyanov), Миранда Харт (Nancy B. Artingstall), Бобби Каннавале (Sergio De Luca), Морена Баккарин (Karen Walker), Питер Серафинович (Aldo), Эллисон Дженни (Elaine Crocker), Ричард Брэйк (Solsa Dudaev), Раад Рави (Tihomir Boyanov), Джессика Чаффин (Sharon)
Описание:
Сьюзан Купер всю свою жизнь мечтала стать секретным агентом и даже устроилась работать в ЦРУ. Однако, дальше сотрудника самой низкой ступени ей так и не удалось продвинуться. Понимая, что осуществить свою мечту практически невозможно, она все-таки продолжает надеяться на лучшее и с нетерпением ожидает своего шанса. И вскоре судьба дарит ей такую возможность. Лучший агент проваливает секретное задание, в ходе которого он должен был выяснить местонахождение ядерной бомбы, но, совершенно случайно, застрелил единственного человека, владеющего этой информацией.
Через некоторое время службе разведки становится известно, что Рейна Боянова знает, где находится бомба, но она также знает в лицо всех секретных агентов ЦРУ. Теперь у руководства не остается другого выбора, как воспользоваться услугами Сьюзан Купер, но сможет ли она справиться со столь сложной миссией?..
, MPAA: R - Лицам до 17 лет обязательно присутствие взрослого
Качество: WEB-DL 720p
Формат: MKV
Видео кодек: AVC
Аудио кодек: AC3
Видео: AVC, 1280x534 (2.40:1), 3958 kbps, 23,976 fps, 0,242 bpp
Аудио: русский / AC3 / 5.1 / 48 kHz / 384 kbps / 16 bit ||

Код:

General
Unique ID                   : 183537120410861783468975490448712843472 (0x8A13F6AF2EFB72CDAA1CF3010880C0D0)
Complete name               : E:\торрент\Wp1on.2015.D.WEB-DL.720p.Theatrical.mkv
Format                      : Matroska
Format version              : Version 4 / Version 2
File size                   : 3.72 GiB
Duration                    : 2h 0mn
Overall bit rate            : 4 431 Kbps
Encoded date                : UTC 2015-09-03 19:19:07
Writing application         : mkvmerge v6.9.1 ('Blue Panther') 64bit built on Apr 18 2014 18:23:38
Writing library             : libebml v1.3.0 + libmatroska v1.4.1

Video
ID                          : 1
Format                      : AVC
Format/Info                 : Advanced Video Codec
Format profile              : Main@L3.1
Format settings, CABAC      : No
Format settings, ReFrames   : 2 frames
Codec ID                    : V_MPEG4/ISO/AVC
Duration                    : 2h 0mn
Bit rate                    : 3 959 Kbps
Width                       : 1 280 pixels
Height                      : 534 pixels
Display aspect ratio        : 2.40:1
Frame rate mode             : Constant
Frame rate                  : 23.976 fps
Color space                 : YUV
Chroma subsampling          : 4:2:0
Bit depth                   : 8 bits
Scan type                   : Progressive
Bits/(Pixel*Frame)          : 0.242
Stream size                 : 3.32 GiB (89%)
Language                    : English
Default                     : Yes
Forced                      : No
Color range                 : Limited
Color primaries             : BT.709
Transfer characteristics    : BT.709
Matrix coefficients         : BT.709

Audio
ID                          : 2
Format                      : AC-3
Format/Info                 : Audio Coding 3
Mode extension              : CM (complete main)
Format settings, Endianness : Big
Codec ID                    : A_AC3
Duration                    : 2h 0mn
Bit rate mode               : Constant
Bit rate                    : 384 Kbps
Channel(s)                  : 6 channels
Channel positions           : Front: L C R, Side: L R, LFE
Sampling rate               : 48.0 KHz
Compression mode            : Lossy
Stream size                 : 330 MiB (9%)
Language                    : Russian
Default                     : Yes
Forced                      : No

pb.wtf



Скачать Шпион через торрент http://i4.imageban.ru/out/2015/09/04/e2acf875f551f1a1c51b3b0e913056fd.jpg Скачать фильм Шпион через торрент бесплантно в хорошем качестве Описание: Сьюзан Купер всю свою жизнь мечтала стать секретным агентом и даже устроилась работать в ЦРУ. Однако, дальше сотрудника самой ... 10 10 5
Торрент: Зарегистрирован [2015-09-03 22:07] · скачан: 81 раз
Статус: √ проверено
Размер: 3.72 GB
Как cкачать? Как скачать Шпион через торрент | qTorrent

% Раздел Тема Автор DL S | L
Фильмы 2015 [DVDrip, WEB-DLRip, HDrip] [ 1.46 GB ] Шпион / Spy [2015 BDRip] DUB Twi7ter Скачать
1 | 0
Фильмы 2018 [DVDrip, WEB-DLRip, HDrip] (DUB, MVO) [ 1.71 GB ] Шпионская игра / The Catcher Was a Spy [2018 WEB-DLRip-AVC] MVO [HDRezka Studio] + bober100 Скачать
1 | 0
Фильмы до 2000 г. [ 1.77 GB ] Неистребимый шпион / Spy Hard [1996 пародия WEB-DLRip] 2x[MVO] + [DVO] + 3х[AVO] killermax2013 Скачать
1 | 0
Ultra HD (UHD: 2K, 4K, 8K) — видео сверхвысокой чёткости [ 30.16 GB ] Шпион / Spy [2015 UHD WEBRip 2160p] DUB [] [Театральная версия] bober100 Скачать
1 | 0
Фильмы 2015 [DVDrip, WEB-DLRip, HDrip] [ 2.91 GB ] Шпионский мост / Bridge of Spies [2015 Германия Индия биография BDRip-AVC от sokol_ok] DUB sokol_ok Скачать
3 | 0
Фильмы [HD 720p, 1080p] (Хороший звук DUB, MVO) [ 7.43 GB ] Шпион / Spy [2015 BDRip 720p] Dub [Расширенная версия] [] potroks Скачать
1 | 0
Фильмы (HD 720p, 1080p) (48-60 fps) [ 6.12 GB ] Шпион / Spy [2015 BDRip 720p 60 fps от _denis_100 / NNNB] DUB AVO _denis_100 Скачать
1 | 0

28-11-2019 20:33  

Отключить всю рекламу на сайте

    Дорогой пользователь! Огромная просьба, поблагодарите релизера, оцените раздачу и оставьте свои комментарий, если Вы скачали Шпион через торрент бесплатно! Внесите свою лепту в развитие PiratBit!
    Комментировать посты могут только пользователи прошедшие не сложную регистрацию
    Показать сообщения:    

    Шпион через торрент
    Скачать бесплатно Шпион
    Шпион скачать торрент
    Шпион смотреть онлайн
    Cкачать фильм Шпион бесплатно
    Шпион скачать торрент в хорошем качестве
    Шпион смотреть онлайн бесплатно в хорошем качестве


    Вы не можете начинать темы
    Вы не можете отвечать на сообщения
    Вы не можете редактировать свои сообщения
    Вы не можете удалять свои сообщения
    Вы не можете голосовать в опросах
    Вы не можете прикреплять файлы к сообщениям
    Вы можете скачивать файлы