2 сезон

iTunes

MVO

1

2 сезон

iTunes

iTunes

1 сезон

RePack

30

Новинка

ВАЖНО

ИГРА 18+

pack

RePack

MK11
pack

Легкие деньги

RePack

jed

RePack

fifa19

RePack

RDR2

RePack

NEED FOR SPEED™ PAYBACK

4 сезон

9 сезон

Бесстыжие 9 сезон

Все сериалы

все сериалы на PB.wtf

RePack

FAR CRY 5

Anonymous, доброй ночи, мы не успеваем собрать деньги на оплату серверов за декабрь и январь, помогите нам пожалуйста в это трудное время. В качестве благодарности мы отключим Вам всю рекламу на сайте (укажите свой ник в строку Ваше имя)!

×
  
Magnet ссылка

Дни и ночи / Days and Nights (Кристиан Камарго) [2013, драма, комедия, HDRip] MVO - Официальный звук pb.wtf

Дни и ночи через торрент pb.wtf

Размер: 1.37 GB | Добавлен: 5 лет 4 мес. назад | Торрент скачан:152 раза
Скачать  

04-09-2015 00:31 Дни и ночи Скачать торрент  

Дни и ночи / Days and Nights


Год выпуска: 2013
Страна: США
Жанр: драма, комедия
Продолжительность: 01:31:20
Перевод: Профессиональное многоголосое - Официальный звук
Режиссер: Кристиан Камарго
В ролях: Эллисон Дженни (Elizabeth), Кэти Холмс (Alex), Бен Уишоу (Eric), Жан Рено (Louis), Уильям Хёрт (Herb), Микаэл Нюквист (Johan), Марк Райлэнс (Stephen), Кристиан Камарго (Peter), Черри Джонс (Mary), Джульет Райлэнс (Eva), Рассел Минс (Big Jim), Бриджет МакКевитт (Girl on train)
Описание:
Безрассудное желание приводит к беспорядкам в День поминовения, когда семья сталкивается с хрупкой и неустойчивой природой любви.

Качество: HDRip
Формат: AVI
Видео кодек: XviD
Аудио кодек: AC3
Видео: XviD, 720x384 (1.875), 1572 kbps, 23,976 fps, 0,237 bpp
Аудио: AC3 / 2.0 / 48 kHz / 192 kbps /

Код:

General
Complete name               : E:\торрент\Dni.i.no4i.2013.P.HDRip.avi
Format                      : AVI
Format/Info                 : Audio Video Interleave
File size                   : 1.37 GiB
Duration                    : 1h 31mn
Overall bit rate            : 2 142 Kbps
Writing application         : VirtualDubMod 1.5.10.2 (build 2540/release)
Writing library             : VirtualDubMod build 2540/release

Video
ID                          : 0
Format                      : MPEG-4 Visual
Format profile              : Advanced Simple@L5
Format settings, BVOP       : 2
Format settings, QPel       : No
Format settings, GMC        : No warppoints
Format settings, Matrix     : Default (MPEG)
Codec ID                    : XVID
Codec ID/Hint               : XviD
Duration                    : 1h 31mn
Bit rate                    : 1 941 Kbps
Width                       : 720 pixels
Height                      : 384 pixels
Display aspect ratio        : 1.85:1
Frame rate                  : 23.976 fps
Color space                 : YUV
Chroma subsampling          : 4:2:0
Bit depth                   : 8 bits
Scan type                   : Progressive
Compression mode            : Lossy
Bits/(Pixel*Frame)          : 0.293
Stream size                 : 1.24 GiB (91%)
Writing library             : XviD 1.2.1 (UTC 2008-12-04)

Audio
ID                          : 1
Format                      : AC-3
Format/Info                 : Audio Coding 3
Mode extension              : CM (complete main)
Format settings, Endianness : Big
Codec ID                    : 2000
Duration                    : 1h 31mn
Bit rate mode               : Constant
Bit rate                    : 192 Kbps
Channel(s)                  : 2 channels
Channel positions           : Front: L R
Sampling rate               : 48.0 KHz
Compression mode            : Lossy
Stream size                 : 125 MiB (9%)
Alignment                   : Split accross interleaves
Interleave, duration        : 42 ms (1.00 video frame)
Interleave, preload duratio : 500 ms

pb.wtf



Скачать Дни и ночи через торрент http://i4.imageban.ru/out/2015/09/04/804063eeb8159f9d6bccc026790725f1.jpg Скачать фильм Дни и ночи через торрент бесплантно в хорошем качестве Описание: Безрассудное желание приводит к беспорядкам в День поминовения, когда семья сталкивается с хрупкой и неустойчивой природой ... 10 10 13
Торрент: Зарегистрирован [2015-09-04 00:31] · скачан: 152 раз
Статус: T временная
Размер: 1.37 GB
Как cкачать? Как скачать Дни и ночи через торрент | UTorrent

28-11-2019 20:33  

Отключить всю рекламу на сайте

    Дорогой пользователь! Огромная просьба, поблагодарите релизера, оцените раздачу и оставьте свои комментарий, если Вы скачали Дни и ночи через торрент бесплатно! Внесите свою лепту в развитие PiratBit!
    Комментировать посты могут только пользователи прошедшие не сложную регистрацию
    Показать сообщения:    

    Дни и ночи через торрент
    Скачать бесплатно Дни и ночи
    Дни и ночи скачать торрент
    Дни и ночи смотреть онлайн
    Cкачать фильм Дни и ночи бесплатно
    Дни и ночи скачать торрент в хорошем качестве
    Дни и ночи смотреть онлайн бесплатно в хорошем качестве


    Вы не можете начинать темы
    Вы не можете отвечать на сообщения
    Вы не можете редактировать свои сообщения
    Вы не можете удалять свои сообщения
    Вы не можете голосовать в опросах
    Вы не можете прикреплять файлы к сообщениям
    Вы можете скачивать файлы