Ссылка на приватное зеркало нашего сайта всего за 1$. Внимание количество ограничено!!!

2 сезон

iTunes

1 сезон

1

iTunes

iTunes

iTunes

1 сезон

RePack

30

ИГРА 18+

pack

ВАЖНО

!!Акция!!

Alien_RageХит недели

RePack

MK11
pack

Забери бонус

RePack

jed

!!Акция!!

Alien_Rage

RePack

fifa19

RePack

Assassins Creed: Odyssey

RePack

NEED FOR SPEED™ PAYBACK

4 сезон

9 сезон

Бесстыжие 9 сезон

Все сериалы

все сериалы на PB.wtf

RePack

FAR CRY 5
  

Волосы / Hair (Милош Форман) [1979, мюзикл, драма, комедия, BDRip 1080p by msltel] MVO, DVO, AVO pb.wtf

Волосы через торрент pb.wtf

Размер: 13.09 GB | Добавлен: 5 лет 1 мес. назад | Торрент скачан:8 раз
Скачать  

04-09-2015 12:12 Волосы Скачать торрент  

Название: Волосы
Оригинальное название: Hair
Год выпуска: 1979
Страна: США, Германия (ФРГ)
Жанр: Мюзикл, драма, комедия
Продолжительность: 02:00:58
Перевод: профессиональный многоголосый, профессиональный двухголосый, авторский

Режиссёр: Милош Форман

В ролях: Джон Сэвидж, Трит Уильямс, Беверли Д`Анджело, Энни Голден, Дорси Райт, Дон Дэкас, Шерил Барнс, Ричард Брайт, Николас Рэй, Шарлотта Рэй, Майкл Джитер, Рен Вудс, Нелл Картер, Курт Ягджян, Эллен Фоли, Чарлэйн Вудард, Рассел Костен, Гранд Л. Буш, Мелба Мур, Байрон Атли, Майлз Чэпин, Ферн Тэйлер, Чарльз Денни, Герман Меклер, Агнесс Брин, Антония Рей, Джордж Дж. Мэнос, Джейн Буке, Сюзанна Лав, Джо Экорд, Джанет Йорк, Рахсаан Керри, Стив Массикотте, Марио Нельсон, Тони Уоткинс, Карл Холл, Ховард Портер, Деби Дай, Джон Маэстро, Фред Феррара, Винсент Карелла

Описание: Действие фильма разворачивается в конце 60-х годов, в самый разгар движения хиппи. В одну из таких компаний «детей цветов», которые празднуют наступление эры Водолея, попадает молодой провинциальный парень Клод. В Нью-Йорке, где и происходит действие фильма, он влюбляется в богатую девушку Шэйлу. У него есть всего одна ночь, чтобы добиться взаимности. Здесь ему помогает компания хиппи - Бергер, Джинни, Вуф и Хад, - попутно Клод знакомится с действием гашиша, марихуаны, ЛСД. На фоне всеобщего веселья и беззаботности в сообществах хиппи, другую часть американцев напрямую затрагивает война во Вьетнаме. Клода призывают во Вьетнам, и друзья отправляются его навестить на военную базу... Экранизация рок-мюзикла «Волосы», авторами которого были Джером Рэгни, Джеймс Рейдо и Голт МакДермотт.



Качество: BDRip 1080p Сравнение с исходником
Формат: MKV
Видео кодек: H.264
Аудио кодек: AC3, DTS
Видео: MPEG-4 AVC, 11.8 Mбит/с, 1920x1042, 23,976 кадра/с
Аудио 1: русский, AC3, 192 kbps, 2 ch, 48 kHz [профессиональный многоголосый, VHS]
Аудио 2: русский, AC3, 192 kbps, 2 ch, 48 kHz [профессиональный двухголосый, HTB+]
Аудио 3: русский, DTS, 1509 kbps, 6 ch, 48 kHz [авторский, Михаил Яроцкий (kyberpunk)]
Аудио 4: английский, DTS, 1509 kbps, 6 ch, 48 kHz [оригинал]
Субтитры 1: русские
Субтитры 2: английские (для слабослышащих)
2 приза «Давид» Донателло» в Италии — лучшему иностранному режиссёру и за лучшую музыку в иностранном фильме.

Золотой глобус, 1980 год
Номинации (2):
Лучший фильм (комедия или мюзикл)
Мужской прорыв года (Трит Уильямс)

Сезар, 1980 год
Номинации (1):
Лучший фильм на иностранном языке
Общее
Уникальный идентификатор : 196711482216318681012288682889268898621 (0x93FD40DEDB447F1FB1E9C5FC39EB2B3D)
Полное имя : D:VideoВолосы.1979.BDRip.1080p.mkv
Формат : Matroska
Версия формата : Version 4 / Version 2
Размер файла : 13,1 Гбайт
Продолжительность : 2 ч. 0 м.
Общий поток : 15,5 Мбит/сек
Название фильма : BDRip -- STarankov
Дата кодирования : UTC 2015-09-04 01:07:33
Программа кодирования : mkvmerge v8.2.0 ('World of Adventure') 64bit
Библиотека кодирования : libebml v1.3.1 + libmatroska v1.4.2
DURATION : 02:00:58.176000000
NUMBER_OF_FRAMES : 680454
NUMBER_OF_BYTES : 1369074700
_STATISTICS_WRITING_APP : mkvmerge v8.2.0 ('World of Adventure') 64bit
_STATISTICS_WRITING_DATE_UTC : 2015-09-04 01:07:33
_STATISTICS_TAGS : BPS DURATION NUMBER_OF_FRAMES NUMBER_OF_BYTES

Видео
Идентификатор : 1
Формат : AVC
Формат/Информация : Advanced Video Codec
Профиль формата : High@L4.1
Параметр CABAC формата : Да
Параметр ReFrames формата : 4 кадра
Идентификатор кодека : V_MPEG4/ISO/AVC
Продолжительность : 2 ч. 0 м.
Битрейт : 11,8 Мбит/сек
Ширина : 1920 пикселей
Высота : 1042 пикселя
Соотношение сторон : 1,85:1
Режим частоты кадров : Постоянный
Частота кадров : 23,976 кадра/сек
Цветовое пространство : YUV
Субдискретизация насыщенности : 4:2:0
Битовая глубина : 8 бит
Тип развёртки : Прогрессивная
Бит/(Пиксели*Кадры) : 0.246
Размер потока : 9,95 Гбайт (76%)
Библиотека кодирования : x264 core 146 r2538 121396c
Настройки программы : cabac=1 / ref=4 / deblock=1:-3:-3 / analyse=0x3:0x113 / me=umh / subme=10 / psy=1 / psy_rd=1.00:0.15 / mixed_ref=1 / me_range=32 / chroma_me=1 / trellis=2 / 8x8dct=1 / cqm=0 / deadzone=21,11 / fast_pskip=1 / chroma_qp_offset=-3 / threads=6 / lookahead_threads=1 / sliced_threads=0 / nr=0 / decimate=1 / interlaced=0 / bluray_compat=0 / constrained_intra=0 / bframes=14 / b_pyramid=2 / b_adapt=2 / b_bias=0 / direct=1 / weightb=1 / open_gop=0 / weightp=2 / keyint=230 / keyint_min=23 / scenecut=40 / intra_refresh=0 / rc_lookahead=40 / rc=crf / mbtree=0 / crf=20.8 / qcomp=0.60 / qpmin=0 / qpmax=69 / qpstep=4 / vbv_maxrate=40000 / vbv_bufsize=50000 / crf_max=0.0 / nal_hrd=none / filler=0 / ip_ratio=1.40 / pb_ratio=1.30 / aq=1:1.00
Язык : English
Default : Да
Forced : Нет
DURATION : 02:00:58.168000000
NUMBER_OF_FRAMES : 174022
NUMBER_OF_BYTES : 10960351584
_STATISTICS_WRITING_APP : mkvmerge v8.2.0 ('World of Adventure') 64bit
_STATISTICS_WRITING_DATE_UTC : 2015-09-04 01:07:33
_STATISTICS_TAGS : BPS DURATION NUMBER_OF_FRAMES NUMBER_OF_BYTES

Аудио #1
Идентификатор : 2
Формат : AC-3
Формат/Информация : Audio Coding 3
Расширение режима : CM (complete main)
Параметр Endianness формата : Big
Идентификатор кодека : A_AC3
Продолжительность : 2 ч. 0 м.
Вид битрейта : Постоянный
Битрейт : 192 Кбит/сек
Каналы : 2 канала
Расположение каналов : Front: L R
Частота : 48,0 КГц
Метод сжатия : С потерями
Размер потока : 166 Мбайт (1%)
Заголовок : MVO (VHS)
Язык : Russian
Default : Да
Forced : Нет

Аудио #2
Идентификатор : 3
Формат : AC-3
Формат/Информация : Audio Coding 3
Расширение режима : CM (complete main)
Параметр Endianness формата : Big
Идентификатор кодека : A_AC3
Продолжительность : 2 ч. 0 м.
Вид битрейта : Постоянный
Битрейт : 192 Кбит/сек
Каналы : 2 канала
Расположение каналов : Front: L R
Частота : 48,0 КГц
Метод сжатия : С потерями
Размер потока : 166 Мбайт (1%)
Заголовок : DVO (HTB+)
Язык : Russian
Default : Нет
Forced : Нет

Аудио #3
Идентификатор : 4
Формат : DTS
Формат/Информация : Digital Theater Systems
Режим : 16
Параметр Endianness формата : Big
Идентификатор кодека : A_DTS
Продолжительность : 2 ч. 0 м.
Вид битрейта : Постоянный
Битрейт : 1509 Кбит/сек
Каналы : 6 каналов
Расположение каналов : Front: L C R, Side: L R, LFE
Частота : 48,0 КГц
Битовая глубина : 24 бит
Метод сжатия : С потерями
Размер потока : 1,28 Гбайт (10%)
Заголовок : AVO (Михаил Яроцкий (kyberpunk)
Язык : Russian
Default : Нет
Forced : Нет

Аудио #4
Идентификатор : 5
Формат : DTS
Формат/Информация : Digital Theater Systems
Режим : 16
Параметр Endianness формата : Big
Идентификатор кодека : A_DTS
Продолжительность : 2 ч. 0 м.
Вид битрейта : Постоянный
Битрейт : 1509 Кбит/сек
Каналы : 6 каналов
Расположение каналов : Front: L C R, Side: L R, LFE
Частота : 48,0 КГц
Битовая глубина : 24 бит
Метод сжатия : С потерями
Размер потока : 1,28 Гбайт (10%)
Заголовок : Original
Язык : English
Default : Нет
Forced : Нет

Текст #1
Идентификатор : 6
Формат : UTF-8
Идентификатор кодека : S_TEXT/UTF8
Идентификатор кодека/Информация : UTF-8 Plain Text
Заголовок : русский
Язык : Russian
Default : Нет
Forced : Нет

Текст #2
Идентификатор : 7
Формат : UTF-8
Идентификатор кодека : S_TEXT/UTF8
Идентификатор кодека/Информация : UTF-8 Plain Text
Заголовок : английский (для слабослышащих)
Default : Нет
Forced : Нет
pb.wtf



Скачать Волосы через торрент http://i68.fastpic.ru/big/2015/0901/ff/0ac2bbff0afa3bc67c2df60c5ee69fff.jpg Скачать фильм Волосы через торрент бесплантно в хорошем качестве Описание: Действие фильма разворачивается в конце 60-х годов, в самый разгар движения хиппи. В одну из таких компаний «детей цветов», ... 10 10 3
Info! Серебряная раздача, засчитывается только 50% скачанного.
Торрент: Зарегистрирован [2015-09-04 12:12] · скачан: 8 раз
Статус: √ проверено
Размер: 13.09 GB
Как cкачать? Как скачать Волосы через торрент | qTorrent

% Раздел Тема Автор DL S | L
Фильмы [HD 720p, 1080p] (Хороший звук DUB, MVO) [ 5.21 GB ] Волосы / Hair [1979 мюзикл BDRip 720p by msltel] MVO DVO AVO msltel Скачать
1 | 0
Фильмы до 2000 г. [ 3.47 GB ] Волосы / Hair [1979 мюзикл BDRip AVC by msltel] MVO DVO AVO msltel Скачать
1 | 0

28-11-2019 20:33  

Отключить всю рекламу на сайте

    Дорогой пользователь! Огромная просьба, поблагодарите релизера, оцените раздачу и оставьте свои комментарий, если Вы скачали Волосы через торрент бесплатно! Внесите свою лепту в развитие PiratBit!
    Комментировать посты могут только пользователи прошедшие не сложную регистрацию
    Показать сообщения:    

    Волосы через торрент
    Скачать бесплатно Волосы
    Волосы скачать торрент
    Волосы смотреть онлайн
    Cкачать фильм Волосы бесплатно
    Волосы скачать торрент в хорошем качестве
    Волосы смотреть онлайн бесплатно в хорошем качестве


    Вы не можете начинать темы
    Вы не можете отвечать на сообщения
    Вы не можете редактировать свои сообщения
    Вы не можете удалять свои сообщения
    Вы не можете голосовать в опросах
    Вы не можете прикреплять файлы к сообщениям
    Вы можете скачивать файлы