2 сезон

iTunes

MVO

1

2 сезон

iTunes

iTunes

1 сезон

RePack

30

Новинка

ВАЖНО

ИГРА 18+

pack

RePack

MK11
pack

Легкие деньги

RePack

jed

RePack

fifa19

RePack

RDR2

RePack

NEED FOR SPEED™ PAYBACK

4 сезон

9 сезон

Бесстыжие 9 сезон

Все сериалы

все сериалы на PB.wtf

RePack

FAR CRY 5

Anonymous, доброе утро, мы не успеваем собрать деньги на оплату серверов за декабрь и январь, помогите нам пожалуйста в это трудное время. В качестве благодарности мы отключим Вам всю рекламу на сайте (укажите свой ник в строку Ваше имя)!

×
  
Magnet ссылка

13 грехов / 13 Sins (Даниэль Штамм / Daniel Stamm) [2013, триллер, ужасы, BDRip-AVC от potroks] Dub pb.wtf

13 грехов через торрент pb.wtf

Размер: 2.18 GB | Добавлен: 5 лет 4 мес. назад | Торрент скачан:515 раз
Скачать  

04-09-2015 14:06 13 грехов Скачать торрент  

13 грехов / 13 Sins
«Играешь не ты, играют тобой»
Год выпуска: 2013
Страна: США / Dimension Films, RADiUS-TWC, IM Global
Жанр: триллер, ужасы
Продолжительность: 01:32:31
Перевод: Дубляж [НТВ+]
Субтитры: русские, английские (Full), английские (SDH), английские (SDH-Colored)
Навигация по главам: есть
Режиссер: Даниэль Штамм / Daniel Stamm
В ролях:

Марк Веббер (Elliot Brindle), Рутина Уэсли (Shelby), Девон Грайе (Michael Brindle), Прюитт Тэйлор Винс (Vogler), Том Бауэр (Father), Рон Перлман (Det. Chilcoat), Клайд Джонс (Gerry), Денин Тайлер (Joyce), Том Лосон мл. (Prof. Edgar Solomon), Шэрон Смит (ведущая), Грег Пирсон (Security Guard), Ричи Монтгомери (Apartment Manager)
Описание: Эллиот Бриндл - умный кроткий сотрудник службы социального обеспечения, тонущий в долгах. Всё меняется, когда раздаётся телефонный звонок. Парню сообщают, что он становится участником ТВ-шоу, условия простые - выполнить 13 заданий, какими бы странными они ни были; на кону - денежный приз, сумма которого увеличивается с каждым выполненным заданием. Эллиот следует первым инструкциям и с лёгкостью съедает пойманную муху. Вскоре Эллиот хочет, но не может прекратить игру, хотя задачи становятся более опасными, а точка невозврата скоро будет пройдена.

Качество: BDRip-AVC
Формат: MKV
Видео кодек: AVC
Аудио кодек: AC3
Видео: AVC, 1080x450 (2.40:1), 2477 kbps, 23,976 fps, 0,213 bit/pixel
Аудио №1: AC3 / 5.1 / 48 kHz / 448 kbps / 16 bit | RUS
Аудио №2: AC3 / 5.1 / 48 kHz / 448 kbps / 16 bit | ENG
Релиз группы:
Автор рипа: potroks

Код:

General
Unique ID                                : 184625681587783061323651596704970804070 (0x8AE59CE4DEC2A2C3B8B12E181EE58B66)
Complete name                            : F:\Триллер\13.Grehov.2013.DUAL.BDRip.x264.-HELLYWOOD.mkv
Format                                   : Matroska
Format version                           : Version 4 / Version 2
File size                                : 2.18 GiB
Duration                                 : 1h 32mn
Overall bit rate                         : 3 375 Kbps
Movie name                               : 13 Sins (2014) - HELLYWOOD
Encoded date                             : UTC 2015-09-04 13:51:07
Writing application                      : mkvmerge v5.9.0 ('On The Loose') built on Dec 15 2012 16:39:58
Writing library                          : libebml v1.3.0 + libmatroska v1.4.0

Video
ID                                       : 1
Format                                   : AVC
Format/Info                              : Advanced Video Codec
Format profile                           : High@L4.1
Format settings, CABAC                   : Yes
Format settings, ReFrames                : 10 frames
Codec ID                                 : V_MPEG4/ISO/AVC
Duration                                 : 1h 32mn
Bit rate                                 : 2 477 Kbps
Width                                    : 1 080 pixels
Height                                   : 450 pixels
Display aspect ratio                     : 2.40:1
Frame rate                               : 23.976 fps
Color space                              : YUV
Chroma subsampling                       : 4:2:0
Bit depth                                : 8 bits
Scan type                                : Progressive
Bits/(Pixel*Frame)                       : 0.213
Stream size                              : 1.56 GiB (71%)
Title                                    : potroks
Writing library                          : x264 core 130 r2273 b3065e6
Encoding settings                        : cabac=1 / ref=10 / deblock=1:-2:-2 / analyse=0x3:0x133 / me=umh / subme=11 / psy=1 / psy_rd=0.98:0.00 / mixed_ref=1 / me_range=48 / chroma_me=1 / trellis=2 / 8x8dct=1 / cqm=0 / deadzone=21,11 / fast_pskip=0 / chroma_qp_offset=-2 / threads=9 / lookahead_threads=6 / sliced_threads=0 / nr=0 / decimate=0 / interlaced=0 / bluray_compat=0 / constrained_intra=0 / bframes=11 / b_pyramid=2 / b_adapt=2 / b_bias=0 / direct=3 / weightb=1 / open_gop=0 / weightp=2 / keyint=250 / keyint_min=23 / scenecut=40 / intra_refresh=0 / rc_lookahead=60 / rc=2pass / mbtree=0 / bitrate=2477 / ratetol=1.0 / qcomp=0.70 / qpmin=0 / qpmax=69 / qpstep=4 / cplxblur=20.0 / qblur=0.5 / vbv_maxrate=20000 / vbv_bufsize=25000 / nal_hrd=none / ip_ratio=1.35 / pb_ratio=1.25 / aq=1:0.80
Language                                 : English
Default                                  : Yes
Forced                                   : No

Audio #1
ID                                       : 2
Format                                   : AC-3
Format/Info                              : Audio Coding 3
Mode extension                           : CM (complete main)
Codec ID                                 : A_AC3
Duration                                 : 1h 32mn
Bit rate mode                            : Constant
Bit rate                                 : 448 Kbps
Channel(s)                               : 6 channels
Channel positions                        : Front: L C R, Side: L R, LFE
Sampling rate                            : 48.0 KHz
Bit depth                                : 16 bits
Compression mode                         : Lossy
Stream size                              : 297 MiB (13%)
Title                                    : Dub | DD 5.1 @ 448 kbps - NTV+
Language                                 : Russian
Default                                  : Yes
Forced                                   : No

Audio #2
ID                                       : 3
Format                                   : AC-3
Format/Info                              : Audio Coding 3
Mode extension                           : CM (complete main)
Codec ID                                 : A_AC3
Duration                                 : 1h 32mn
Bit rate mode                            : Constant
Bit rate                                 : 448 Kbps
Channel(s)                               : 6 channels
Channel positions                        : Front: L C R, Side: L R, LFE
Sampling rate                            : 48.0 KHz
Bit depth                                : 16 bits
Compression mode                         : Lossy
Stream size                              : 297 MiB (13%)
Title                                    : Original | DD 5.1 @ 448 kbps
Language                                 : English
Default                                  : No
Forced                                   : No

Text #1
ID                                       : 4
Format                                   : UTF-8
Codec ID                                 : S_TEXT/UTF8
Codec ID/Info                            : UTF-8 Plain Text
Title                                    : lumez
Language                                 : Russian
Default                                  : No
Forced                                   : No

Text #2
ID                                       : 5
Format                                   : UTF-8
Codec ID                                 : S_TEXT/UTF8
Codec ID/Info                            : UTF-8 Plain Text
Title                                    : Full
Language                                 : English
Default                                  : No
Forced                                   : No

Text #3
ID                                       : 6
Format                                   : UTF-8
Codec ID                                 : S_TEXT/UTF8
Codec ID/Info                            : UTF-8 Plain Text
Title                                    : SDH
Language                                 : English
Default                                  : No
Forced                                   : No

Text #4
ID                                       : 7
Format                                   : UTF-8
Codec ID                                 : S_TEXT/UTF8
Codec ID/Info                            : UTF-8 Plain Text
Title                                    : SDH-Colored
Language                                 : English
Default                                  : No
Forced                                   : No

Menu
00:00:00.000                             : en:(01)00:00:00:000
00:05:10.601                             : en:(02)00:05:10:601
00:10:52.610                             : en:(03)00:10:52:610
00:16:12.972                             : en:(04)00:16:12:972
00:23:14.684                             : en:(05)00:23:14:684
00:28:38.925                             : en:(06)00:28:38:925
00:35:55.528                             : en:(07)00:35:55:528
00:40:40.896                             : en:(08)00:40:40:896
00:48:50.177                             : en:(09)00:48:50:177
00:56:12.077                             : en:(10)00:56:12:077
01:03:46.823                             : en:(11)01:03:46:823
01:11:24.446                             : en:(12)01:11:24:446
01:15:58.262                             : en:(13)01:15:58:262
01:22:09.716                             : en:(14)01:22:09:716
01:28:21.296                             : en:(15)01:28:21:296
01:32:31.712                             : en:(16)01:32:31:712

pb.wtf



Скачать 13 грехов через торрент http://i69.fastpic.ru/big/2015/0904/4d/ce9af8d62c2bc3aeadb3ec2c0731434d.png Скачать фильм 13 грехов через торрент бесплантно в хорошем качестве Описание: Эллиот Бриндл - умный кроткий сотрудник службы социального обеспечения, тонущий в долгах. Всё меняется, когда раздаётся ... 9.6 10 19
Info! Золотая раздача, скачанное не засчитывается.
Торрент: Зарегистрирован [2015-09-04 14:06] · скачан: 515 раз
Статус: √ проверено
Размер: 2.18 GB
Как cкачать? Как скачать 13 грехов через торрент | UTorrent

% Раздел Тема Автор DL S | L
Фильмы 2014 [DVDrip, WEB-DLRip, HDrip] [ 1.46 GB ] 13 грехов / 13 Sins [2013 BDRip] Dub [НТВ Twi7ter Скачать
3 | 0
Фильмы [HD 720p, 1080p] (Хороший звук DUB, MVO) [ 7.77 GB ] 13 грехов / 13 Sins [2013 BDRip 1080p] DUB+VO Ворон Скачать
1 | 0
Фильмы [HD 720p, 1080p] (Хороший звук DUB, MVO) [ 4.03 GB ] 13 грехов / 13 Sins [2013 BDRip 720p] DUB+VO Ворон Скачать
1 | 0

28-11-2019 20:33  

Отключить всю рекламу на сайте

04-09-2015 14:22 13 грехов Скачать торрент  

классное кино кстати рекомендую всемpb.wtf



04-09-2015 18:03 13 грехов Скачать торрент  

А мне фильм не понравился(pb.wtf



05-09-2015 13:57 13 грехов Скачать торрент  

Уже смотрел в индийском кино))
http://www.kinopoisk.ru/film/317914/pb.wtf



    Дорогой пользователь! Огромная просьба, поблагодарите релизера, оцените раздачу и оставьте свои комментарий, если Вы скачали 13 грехов через торрент бесплатно! Внесите свою лепту в развитие PiratBit!
    Комментировать посты могут только пользователи прошедшие не сложную регистрацию
    Показать сообщения:    

    13 грехов через торрент
    Скачать бесплатно 13 грехов
    13 грехов скачать торрент
    13 грехов смотреть онлайн
    Cкачать фильм 13 грехов бесплатно
    13 грехов скачать торрент в хорошем качестве
    13 грехов смотреть онлайн бесплатно в хорошем качестве


    Вы не можете начинать темы
    Вы не можете отвечать на сообщения
    Вы не можете редактировать свои сообщения
    Вы не можете удалять свои сообщения
    Вы не можете голосовать в опросах
    Вы не можете прикреплять файлы к сообщениям
    Вы можете скачивать файлы