Ссылка на приватное зеркало всего за 1$. Внимание количество ограничено!!!

iTunes

iTunes

iTunes

1

iTunes

iTunes

iTunes

iTunes

iTunes

30
pack

$ от Little Big

ВАЖНО

!!Акция!!

Alien_RageХит недели

RePack

Resident Evil 21

ИГРА 18+

pack

RePack

jed

!!Акция!!

Alien_Rage

RePack

fifa19

RePack

Assassins Creed: Odyssey

RePack

NEED FOR SPEED™ PAYBACK

4 сезон

9 сезон

Бесстыжие 9 сезон

Все сериалы

все сериалы на PB.wtf

RePack

FAR CRY 5
  

Калеуче: Зов моря / Caleuche: El llamado del mar (Хорхе Ольгин) [2012, ужасы, фэнтези, драма, WEB-DL 720p, Профессиональный (многоголосый) pb.wtf

Калеуче: Зов моря через торрент pb.wtf

Размер: 1.93 GB | Добавлен: 4 года 10 мес. назад | Торрент скачан:78 раз
Скачать  

04-09-2015 16:54 Калеуче: Зов моря Скачать торрент  


Калеуче: Зов моря / Caleuche: El llamado del mar


ИНФОРМАЦИЯ:
Год выпуска:2012
Страна: Чили
Жанр: ужасы, фэнтези, драма
Продолжительность: 01:40:09
Перевод: Профессиональный (многоголосый)Официальный
Режиссер: Хорхе Ольгин

В Ролях:


Жизель Итье (Isabel Millalobos), Эдуардо Паксеко (Simon Cárdenas), Каталина Сааведра (Aurora), Марсело Алонсо (José Bórquez), Хуан Пабло Миранда (Juan Bórquez), Эрнан Лакалль (Pedro Millalobos), Лус Вальдивьесо (Amanda), Матиас Хара (Padre de Isabel (Niño)), Пабло Шварц (Padre de Isabel (Adulto)), Уил Эдгар (Howard), Хорхе Яньес (Anciano), Виктор Монтеро (Pescador 1)

Описание:
Изабель - морской исследователь латинского происхождения, работающая в Соединенных Штатах, серьёзное заболевание которой вынуждает её покинуть работу. В целях оздоровления она отправляется на остров Чилоэ, что на юге Чили, и изучая историю своих предков, узнаёт о существовании удивительной легенды про корабль-призрак под названием Калеуче, который пагубно влияет на жизнь местных обитателей.

  • Мировая премьера:8 ноября 2012

    ТЕХ.ДАННЫЕ:
    Качество: WEB-DL 720p
    Формат: MKV
    Видео кодек: AVC
    Аудио кодек: AC3
    Видео: AVC, 1280x720 (16:9), 2569 kbps, 25 fps, 0,112 bpp
    Аудио: русский / AC3 / 2.0 / 48 kHz / 192 kbps / 16 bit ||


    General
    Unique ID : 233508099121515786959880305549107956611 (0xAFAC062730E4883AB78ABB947E3E8B83)
    Complete name : D:\Торенты\Kaley4e.Zov.morya.2012.P.WEBDL.720p.mkv
    Format : Matroska
    Format version : Version 4 / Version 2
    File size : 1.93 GiB
    Duration : 1h 40mn
    Overall bit rate : 2 755 Kbps
    Encoded date : UTC 2015-09-04 00:05:55
    Writing application : mkvmerge v6.8.0 ('Theme for Great Cities') 64bit built on Mar 2 2014 21:34:26
    Writing library : libebml v1.3.0 + libmatroska v1.4.1

    Video
    ID : 1
    Format : AVC
    Format/Info : Advanced Video Codec
    Format profile : High@L4.0
    Format settings, CABAC : Yes
    Format settings, ReFrames : 4 frames
    Codec ID : V_MPEG4/ISO/AVC
    Duration : 1h 40mn
    Bit rate : 2 569 Kbps
    Width : 1 280 pixels
    Height : 720 pixels
    Display aspect ratio : 16:9
    Frame rate mode : Variable
    Frame rate : 25.000 fps
    Color space : YUV
    Chroma subsampling : 4:2:0
    Bit depth : 8 bits
    Scan type : Progressive
    Bits/(Pixel*Frame) : 0.112
    Stream size : 1.75 GiB (91%)
    Writing library : x264 core 142
    Encoding settings : cabac=1 / ref=3 / deblock=1:0:0 / analyse=0x3:0x113 / me=hex / subme=7 / psy=1 / psy_rd=1.00:0.00 / mixed_ref=1 / me_range=16 / chroma_me=1 / trellis=1 / 8x8dct=1 / cqm=0 / deadzone=21,11 / fast_pskip=1 / chroma_qp_offset=-2 / threads=4 / lookahead_threads=1 / sliced_threads=0 / nr=0 / decimate=1 / interlaced=0 / bluray_compat=0 / constrained_intra=0 / bframes=6 / b_pyramid=2 / b_adapt=1 / b_bias=0 / direct=1 / weightb=1 / open_gop=0 / weightp=2 / keyint=200 / keyint_min=20 / scenecut=0 / intra_refresh=0 / rc_lookahead=40 / rc=2pass / mbtree=1 / bitrate=2569 / ratetol=1.0 / qcomp=0.60 / qpmin=0 / qpmax=69 / qpstep=4 / cplxblur=20.0 / qblur=0.5 / vbv_maxrate=3854 / vbv_bufsize=10279 / nal_hrd=none / filler=0 / ip_ratio=1.40 / aq=1:1.00
    Language : English
    Default : Yes
    Forced : No

    Audio
    ID : 2
    Format : AC-3
    Format/Info : Audio Coding 3
    Mode extension : CM (complete main)
    Codec ID : A_AC3
    Duration : 1h 40mn
    Bit rate mode : Constant
    Bit rate : 192 Kbps
    Channel(s) : 2 channels
    Channel positions : Front: L R
    Sampling rate : 48.0 KHz
    Bit depth : 16 bits
    Compression mode : Lossy
    Stream size : 138 MiB (7%)
    Language : Russian
    Default : Yes
    Forced : Yes
    Скриншоты:


    © Оформление by Ворон
    pb.wtf



  • Скачать Калеуче: Зов моря через торрент http://pic.kartinco.top/images/6/ordi9.jpg Скачать фильм Калеуче: Зов моря через торрент бесплантно в хорошем качестве Описание: Изабель - морской исследователь латинского происхождения, работающая в Соединенных Штатах, серьёзное заболевание которой ... 9.3 10 12
    Торрент: Зарегистрирован [2015-09-04 16:54] · скачан: 78 раз
    Статус: T временная
    Размер: 1.93 GB
    Как cкачать? Как скачать Калеуче: Зов моря через торрент | qTorrent

    % Раздел Тема Автор DL S | L
    Фильмы 2012 [ 1.46 GB ] Калеуче: Зов моря / Caleuche: El llamado del mar [2012 WEB-DLRip Ворон Скачать
    1 | 0
    Фильмы 2012 [ 1.46 GB ] Калеуче: Зов моря / Caleuche: El llamado del mar [2012 Чили WEBRip Ворон Скачать
    1 | 0

    28-11-2019 20:33  

    Отключить всю рекламу на сайте

      Дорогой пользователь! Огромная просьба, поблагодарите релизера, оцените раздачу и оставьте свои комментарий, если Вы скачали Калеуче: Зов моря через торрент бесплатно! Внесите свою лепту в развитие PiratBit!
      Комментировать посты могут только пользователи прошедшие не сложную регистрацию
      Показать сообщения:    

      Калеуче: Зов моря через торрент
      Скачать бесплатно Калеуче: Зов моря
      Калеуче: Зов моря скачать торрент
      Калеуче: Зов моря смотреть онлайн
      Cкачать фильм Калеуче: Зов моря бесплатно
      Калеуче: Зов моря скачать торрент в хорошем качестве
      Калеуче: Зов моря смотреть онлайн бесплатно в хорошем качестве


      Вы не можете начинать темы
      Вы не можете отвечать на сообщения
      Вы не можете редактировать свои сообщения
      Вы не можете удалять свои сообщения
      Вы не можете голосовать в опросах
      Вы не можете прикреплять файлы к сообщениям
      Вы можете скачивать файлы